  0
SECTION
  2
HEADER
  9
$ACADVER
  1
AC1027
  9
$ACADMAINTVER
 70
    55
  9
$DWGCODEPAGE
  3
ANSI_936
  9
$LASTSAVEDBY
  1
LI
  9
$REQUIREDVERSIONS
160
                 0
  9
$INSBASE
 10
0.0
 20
0.0
 30
0.0
  9
$EXTMIN
 10
223.7044547118195
 20
267.8744145496916
 30
0.0
  9
$EXTMAX
 10
578.6868284132374
 20
567.8744145496917
 30
0.0
  9
$LIMMIN
 10
0.0
 20
0.0
  9
$LIMMAX
 10
12.0
 20
9.0
  9
$ORTHOMODE
 70
     0
  9
$REGENMODE
 70
     1
  9
$FILLMODE
 70
     1
  9
$QTEXTMODE
 70
     0
  9
$MIRRTEXT
 70
     1
  9
$LTSCALE
 40
1.0
  9
$ATTMODE
 70
     1
  9
$TEXTSIZE
 40
0.2
  9
$TRACEWID
 40
0.05
  9
$TEXTSTYLE
  7
Standard
  9
$CLAYER
  8
0
  9
$CELTYPE
  6
ByLayer
  9
$CECOLOR
 62
   256
  9
$CELTSCALE
 40
1.0
  9
$DISPSILH
 70
     0
  9
$DIMSCALE
 40
1.0
  9
$DIMASZ
 40
0.18
  9
$DIMEXO
 40
0.0625
  9
$DIMDLI
 40
0.38
  9
$DIMRND
 40
0.0
  9
$DIMDLE
 40
0.0
  9
$DIMEXE
 40
0.18
  9
$DIMTP
 40
0.0
  9
$DIMTM
 40
0.0
  9
$DIMTXT
 40
0.18
  9
$DIMCEN
 40
0.09
  9
$DIMTSZ
 40
0.0
  9
$DIMTOL
 70
     0
  9
$DIMLIM
 70
     0
  9
$DIMTIH
 70
     1
  9
$DIMTOH
 70
     1
  9
$DIMSE1
 70
     0
  9
$DIMSE2
 70
     0
  9
$DIMTAD
 70
     0
  9
$DIMZIN
 70
     0
  9
$DIMBLK
  1

  9
$DIMASO
 70
     1
  9
$DIMSHO
 70
     1
  9
$DIMPOST
  1

  9
$DIMAPOST
  1

  9
$DIMALT
 70
     0
  9
$DIMALTD
 70
     2
  9
$DIMALTF
 40
25.4
  9
$DIMLFAC
 40
1.0
  9
$DIMTOFL
 70
     0
  9
$DIMTVP
 40
0.0
  9
$DIMTIX
 70
     0
  9
$DIMSOXD
 70
     0
  9
$DIMSAH
 70
     0
  9
$DIMBLK1
  1

  9
$DIMBLK2
  1

  9
$DIMSTYLE
  2
Standard
  9
$DIMCLRD
 70
     0
  9
$DIMCLRE
 70
     0
  9
$DIMCLRT
 70
     0
  9
$DIMTFAC
 40
1.0
  9
$DIMGAP
 40
0.09
  9
$DIMJUST
 70
     0
  9
$DIMSD1
 70
     0
  9
$DIMSD2
 70
     0
  9
$DIMTOLJ
 70
     1
  9
$DIMTZIN
 70
     0
  9
$DIMALTZ
 70
     0
  9
$DIMALTTZ
 70
     0
  9
$DIMUPT
 70
     0
  9
$DIMDEC
 70
     4
  9
$DIMTDEC
 70
     4
  9
$DIMALTU
 70
     2
  9
$DIMALTTD
 70
     2
  9
$DIMTXSTY
  7
Standard
  9
$DIMAUNIT
 70
     0
  9
$DIMADEC
 70
     0
  9
$DIMALTRND
 40
0.0
  9
$DIMAZIN
 70
     0
  9
$DIMDSEP
 70
    46
  9
$DIMATFIT
 70
     3
  9
$DIMFRAC
 70
     0
  9
$DIMLDRBLK
  1

  9
$DIMLUNIT
 70
     2
  9
$DIMLWD
 70
    -2
  9
$DIMLWE
 70
    -2
  9
$DIMTMOVE
 70
     0
  9
$DIMFXL
 40
1.0
  9
$DIMFXLON
 70
     0
  9
$DIMJOGANG
 40
0.7853981633974483
  9
$DIMTFILL
 70
     0
  9
$DIMTFILLCLR
 70
     0
  9
$DIMARCSYM
 70
     0
  9
$DIMLTYPE
  6

  9
$DIMLTEX1
  6

  9
$DIMLTEX2
  6

  9
$DIMTXTDIRECTION
 70
     0
  9
$LUNITS
 70
     2
  9
$LUPREC
 70
     4
  9
$SKETCHINC
 40
0.1
  9
$FILLETRAD
 40
0.5
  9
$AUNITS
 70
     0
  9
$AUPREC
 70
     0
  9
$MENU
  1
.
  9
$ELEVATION
 40
0.0
  9
$PELEVATION
 40
0.0
  9
$THICKNESS
 40
0.0
  9
$LIMCHECK
 70
     0
  9
$CHAMFERA
 40
0.5
  9
$CHAMFERB
 40
0.5
  9
$CHAMFERC
 40
1.0
  9
$CHAMFERD
 40
0.0
  9
$SKPOLY
 70
     0
  9
$TDCREATE
 40
2456498.267593935
  9
$TDUCREATE
 40
2456497.934260602
  9
$TDUPDATE
 40
2457569.762064977
  9
$TDUUPDATE
 40
2457569.428731644
  9
$TDINDWG
 40
0.0042235069
  9
$TDUSRTIMER
 40
0.0042235069
  9
$USRTIMER
 70
     1
  9
$ANGBASE
 50
0.0
  9
$ANGDIR
 70
     0
  9
$PDMODE
 70
     0
  9
$PDSIZE
 40
0.0
  9
$PLINEWID
 40
0.0
  9
$SPLFRAME
 70
     0
  9
$SPLINETYPE
 70
     6
  9
$SPLINESEGS
 70
     8
  9
$HANDSEED
  5
789
  9
$SURFTAB1
 70
     6
  9
$SURFTAB2
 70
     6
  9
$SURFTYPE
 70
     6
  9
$SURFU
 70
     6
  9
$SURFV
 70
     6
  9
$UCSBASE
  2

  9
$UCSNAME
  2

  9
$UCSORG
 10
0.0
 20
0.0
 30
0.0
  9
$UCSXDIR
 10
1.0
 20
0.0
 30
0.0
  9
$UCSYDIR
 10
0.0
 20
1.0
 30
0.0
  9
$UCSORTHOREF
  2

  9
$UCSORTHOVIEW
 70
     0
  9
$UCSORGTOP
 10
0.0
 20
0.0
 30
0.0
  9
$UCSORGBOTTOM
 10
0.0
 20
0.0
 30
0.0
  9
$UCSORGLEFT
 10
0.0
 20
0.0
 30
0.0
  9
$UCSORGRIGHT
 10
0.0
 20
0.0
 30
0.0
  9
$UCSORGFRONT
 10
0.0
 20
0.0
 30
0.0
  9
$UCSORGBACK
 10
0.0
 20
0.0
 30
0.0
  9
$PUCSBASE
  2

  9
$PUCSNAME
  2

  9
$PUCSORG
 10
0.0
 20
0.0
 30
0.0
  9
$PUCSXDIR
 10
1.0
 20
0.0
 30
0.0
  9
$PUCSYDIR
 10
0.0
 20
1.0
 30
0.0
  9
$PUCSORTHOREF
  2

  9
$PUCSORTHOVIEW
 70
     0
  9
$PUCSORGTOP
 10
0.0
 20
0.0
 30
0.0
  9
$PUCSORGBOTTOM
 10
0.0
 20
0.0
 30
0.0
  9
$PUCSORGLEFT
 10
0.0
 20
0.0
 30
0.0
  9
$PUCSORGRIGHT
 10
0.0
 20
0.0
 30
0.0
  9
$PUCSORGFRONT
 10
0.0
 20
0.0
 30
0.0
  9
$PUCSORGBACK
 10
0.0
 20
0.0
 30
0.0
  9
$USERI1
 70
     0
  9
$USERI2
 70
     0
  9
$USERI3
 70
     0
  9
$USERI4
 70
     0
  9
$USERI5
 70
     0
  9
$USERR1
 40
0.0
  9
$USERR2
 40
0.0
  9
$USERR3
 40
0.0
  9
$USERR4
 40
0.0
  9
$USERR5
 40
0.0
  9
$WORLDVIEW
 70
     1
  9
$SHADEDGE
 70
     3
  9
$SHADEDIF
 70
    70
  9
$TILEMODE
 70
     1
  9
$MAXACTVP
 70
    64
  9
$PINSBASE
 10
0.0
 20
0.0
 30
0.0
  9
$PLIMCHECK
 70
     0
  9
$PEXTMIN
 10
3.15713315299277
 20
2.209414789719573
 30
0.0
  9
$PEXTMAX
 10
200.3709444587095
 20
287.7561714473947
 30
0.0
  9
$PLIMMIN
 10
-3.174999952316284
 20
-3.174999952316284
  9
$PLIMMAX
 10
206.7983276844024
 20
293.8568298816681
  9
$UNITMODE
 70
     0
  9
$VISRETAIN
 70
     1
  9
$PLINEGEN
 70
     0
  9
$PSLTSCALE
 70
     1
  9
$TREEDEPTH
 70
  3020
  9
$CMLSTYLE
  2
Standard
  9
$CMLJUST
 70
     0
  9
$CMLSCALE
 40
1.0
  9
$PROXYGRAPHICS
 70
     1
  9
$MEASUREMENT
 70
     0
  9
$CELWEIGHT
370
    -1
  9
$ENDCAPS
280
     0
  9
$JOINSTYLE
280
     0
  9
$LWDISPLAY
290
     1
  9
$INSUNITS
 70
     4
  9
$HYPERLINKBASE
  1

  9
$STYLESHEET
  1

  9
$XEDIT
290
     1
  9
$CEPSNTYPE
380
     0
  9
$PSTYLEMODE
290
     1
  9
$FINGERPRINTGUID
  2
{B435FD79-FC0A-464B-BA9E-789F58FD3AAE}
  9
$VERSIONGUID
  2
{0D245A79-3F4C-4A6C-A1A3-4FF8A784445B}
  9
$EXTNAMES
290
     1
  9
$PSVPSCALE
 40
0.0
  9
$OLESTARTUP
290
     0
  9
$SORTENTS
280
   127
  9
$INDEXCTL
280
     0
  9
$HIDETEXT
280
     1
  9
$XCLIPFRAME
280
     0
  9
$HALOGAP
280
     0
  9
$OBSCOLOR
 70
   257
  9
$OBSLTYPE
280
     0
  9
$INTERSECTIONDISPLAY
280
     0
  9
$INTERSECTIONCOLOR
 70
   257
  9
$DIMASSOC
280
     2
  9
$PROJECTNAME
  1

  9
$CAMERADISPLAY
290
     0
  9
$LENSLENGTH
 40
50.0
  9
$CAMERAHEIGHT
 40
0.0
  9
$STEPSPERSEC
 40
2.0
  9
$STEPSIZE
 40
6.0
  9
$3DDWFPREC
 40
2.0
  9
$PSOLWIDTH
 40
0.25
  9
$PSOLHEIGHT
 40
4.0
  9
$LOFTANG1
 40
1.570796326794896
  9
$LOFTANG2
 40
1.570796326794896
  9
$LOFTMAG1
 40
0.0
  9
$LOFTMAG2
 40
0.0
  9
$LOFTPARAM
 70
     7
  9
$LOFTNORMALS
280
     1
  9
$LATITUDE
 40
37.795
  9
$LONGITUDE
 40
-122.394
  9
$NORTHDIRECTION
 40
0.0
  9
$TIMEZONE
 70
 -8000
  9
$LIGHTGLYPHDISPLAY
280
     1
  9
$TILEMODELIGHTSYNCH
280
     1
  9
$CMATERIAL
347
3C
  9
$SOLIDHIST
280
     0
  9
$SHOWHIST
280
     1
  9
$DWFFRAME
280
     2
  9
$DGNFRAME
280
     0
  9
$REALWORLDSCALE
290
     1
  9
$INTERFERECOLOR
 62
     1
  9
$INTERFEREOBJVS
345
33
  9
$INTERFEREVPVS
346
1A8
  9
$CSHADOW
280
     0
  9
$SHADOWPLANELOCATION
 40
0.0
  0
ENDSEC
  0
SECTION
  2
CLASSES
  0
CLASS
  1
ACDBDICTIONARYWDFLT
  2
AcDbDictionaryWithDefault
  3
ObjectDBX Classes
 90
        0
 91
        1
280
     0
281
     0
  0
CLASS
  1
VISUALSTYLE
  2
AcDbVisualStyle
  3
ObjectDBX Classes
 90
     4095
 91
       26
280
     0
281
     0
  0
CLASS
  1
MATERIAL
  2
AcDbMaterial
  3
ObjectDBX Classes
 90
     1153
 91
        3
280
     0
281
     0
  0
CLASS
  1
SCALE
  2
AcDbScale
  3
ObjectDBX Classes
 90
     1153
 91
       33
280
     0
281
     0
  0
CLASS
  1
DICTIONARYVAR
  2
AcDbDictionaryVar
  3
ObjectDBX Classes
 90
        0
 91
        9
280
     0
281
     0
  0
CLASS
  1
TABLESTYLE
  2
AcDbTableStyle
  3
ObjectDBX Classes
 90
     4095
 91
        1
280
     0
281
     0
  0
CLASS
  1
MLEADERSTYLE
  2
AcDbMLeaderStyle
  3
ACDB_MLEADERSTYLE_CLASS
 90
     4095
 91
        1
280
     0
281
     0
  0
CLASS
  1
ACDBSECTIONVIEWSTYLE
  2
AcDbSectionViewStyle
  3
ObjectDBX Classes
 90
     1025
 91
        1
280
     0
281
     0
  0
CLASS
  1
ACDBDETAILVIEWSTYLE
  2
AcDbDetailViewStyle
  3
ObjectDBX Classes
 90
     1025
 91
        1
280
     0
281
     0
  0
CLASS
  1
EXACXREFPANELOBJECT
  2
ExAcXREFPanelObject
  3
EXAC_ESW
 90
     1025
 91
        0
280
     0
281
     0
  0
CLASS
  1
NPOCOLLECTION
  2
AcDbImpNonPersistentObjectsCollection
  3
ObjectDBX Classes
 90
     1153
 91
        0
280
     0
281
     0
  0
CLASS
  1
IMAGE
  2
AcDbRasterImage
  3
ISM
 90
     2175
 91
        1
280
     0
281
     1
  0
CLASS
  1
IMAGEDEF_REACTOR
  2
AcDbRasterImageDefReactor
  3
ISM
 90
        1
 91
        1
280
     0
281
     0
  0
CLASS
  1
IMAGEDEF
  2
AcDbRasterImageDef
  3
ISM
 90
        0
 91
        4
280
     0
281
     0
  0
CLASS
  1
RASTERVARIABLES
  2
AcDbRasterVariables
  3
ISM
 90
        0
 91
        1
280
     0
281
     0
  0
CLASS
  1
CELLSTYLEMAP
  2
AcDbCellStyleMap
  3
ObjectDBX Classes
 90
     1152
 91
        2
280
     0
281
     0
  0
ENDSEC
  0
SECTION
  2
TABLES
  0
TABLE
  2
VPORT
  5
8
330
0
100
AcDbSymbolTable
 70
     1
  0
VPORT
  5
29
330
8
100
AcDbSymbolTableRecord
100
AcDbViewportTableRecord
  2
*Active
 70
     0
 10
0.0
 20
0.0
 11
1.0
 21
1.0
 12
370.581400139812
 22
409.1867677100975
 13
0.0
 23
0.0
 14
0.5
 24
0.5
 15
0.5
 25
0.5
 16
0.0
 26
0.0
 36
1.0
 17
0.0
 27
0.0
 37
0.0
 40
548.6540537523873
 41
2.097014925373134
 42
50.0
 43
0.0
 44
0.0
 50
0.0
 51
0.0
 71
     0
 72
   100
 73
     1
 74
     3
 75
     0
 76
     0
 77
     0
 78
     0
281
     0
 65
     1
110
0.0
120
0.0
130
0.0
111
1.0
121
0.0
131
0.0
112
0.0
122
1.0
132
0.0
 79
     0
146
0.0
348
2F
 60
     3
 61
     5
292
     1
282
     1
141
0.0
142
0.0
 63
   250
421
  3355443
1001
ACAD_NAV_VCDISPLAY
1070
     3
  0
ENDTAB
  0
TABLE
  2
LTYPE
  5
5
330
0
100
AcDbSymbolTable
 70
     6
  0
LTYPE
  5
14
330
5
100
AcDbSymbolTableRecord
100
AcDbLinetypeTableRecord
  2
ByBlock
 70
     0
  3

 72
    65
 73
     0
 40
0.0
  0
LTYPE
  5
15
330
5
100
AcDbSymbolTableRecord
100
AcDbLinetypeTableRecord
  2
ByLayer
 70
     0
  3

 72
    65
 73
     0
 40
0.0
  0
LTYPE
  5
16
330
5
100
AcDbSymbolTableRecord
100
AcDbLinetypeTableRecord
  2
Continuous
 70
     0
  3
Solid line
 72
    65
 73
     0
 40
0.0
  0
LTYPE
  5
4E
330
5
100
AcDbSymbolTableRecord
100
AcDbLinetypeTableRecord
  2
Building Wrap
 70
     0
  3
- - - - - 
 72
    65
 73
     2
 40
6.0
 49
4.0
 74
     0
 49
-2.0
 74
     0
  0
LTYPE
  5
1B6
330
5
100
AcDbSymbolTableRecord
100
AcDbLinetypeTableRecord
  2
PHANTOM2
 70
     0
  3
Phantom (.5x) ___ _ _ ___ _ _ ___ _ _ ___ _ _
 72
    65
 73
     6
 40
1.25
 49
0.625
 74
     0
 49
-0.125
 74
     0
 49
0.125
 74
     0
 49
-0.125
 74
     0
 49
0.125
 74
     0
 49
-0.125
 74
     0
  0
LTYPE
  5
672
330
5
100
AcDbSymbolTableRecord
100
AcDbLinetypeTableRecord
  2
Hidden
 70
     0
  3
- - - - - 
 72
    65
 73
     2
 40
2.0
 49
1.0
 74
     0
 49
-1.0
 74
     0
  0
LTYPE
  5
673
330
5
100
AcDbSymbolTableRecord
100
AcDbLinetypeTableRecord
  2
Dashed
 70
     0
  3
- - - - - 
 72
    65
 73
     2
 40
6.0
 49
4.0
 74
     0
 49
-2.0
 74
     0
  0
ENDTAB
  0
TABLE
  2
LAYER
  5
2
102
{ACAD_XDICTIONARY
360
688
102
}
330
0
100
AcDbSymbolTable
 70
    17
  0
LAYER
  5
10
102
{ACAD_XDICTIONARY
360
6CA
102
}
330
2
100
AcDbSymbolTableRecord
100
AcDbLayerTableRecord
  2
0
 70
     0
 62
     7
  6
Continuous
370
    -3
390
F
347
3E
348
0
  0
LAYER
  5
40
102
{ACAD_XDICTIONARY
360
6CC
102
}
330
2
100
AcDbSymbolTableRecord
100
AcDbLayerTableRecord
  2
0_Pen_No__153
 70
     0
 62
     9
420
 12171705
  6
Continuous
370
    13
390
F
347
3E
348
0
  0
LAYER
  5
42
102
{ACAD_XDICTIONARY
360
6CE
102
}
330
2
100
AcDbSymbolTableRecord
100
AcDbLayerTableRecord
  2
Fills_ Pattern_Pen_No__154
 70
     0
 62
   253
420
 10658466
  6
Continuous
370
    13
390
F
347
3E
348
0
  0
LAYER
  5
44
102
{ACAD_XDICTIONARY
360
6D0
102
}
330
2
100
AcDbSymbolTableRecord
100
AcDbLayerTableRecord
  2
Fills_ Pattern_Pen_No__153
 70
     0
 62
     9
420
 12171705
  6
Continuous
370
    13
390
F
347
3E
348
0
  0
LAYER
  5
46
102
{ACAD_XDICTIONARY
360
6D2
102
}
330
2
100
AcDbSymbolTableRecord
100
AcDbLayerTableRecord
  2
Fills_ Pattern_Pen_No__4
 70
     0
 62
     7
  6
Continuous
370
    25
390
F
347
3E
348
0
  0
LAYER
  5
4A
102
{ACAD_XDICTIONARY
360
6D4
102
}
330
2
100
AcDbSymbolTableRecord
100
AcDbLayerTableRecord
  2
0_Pen_No__2
 70
     0
 62
     7
  6
Continuous
370
    13
390
F
347
3E
348
0
  0
LAYER
  5
4C
102
{ACAD_XDICTIONARY
360
6D6
102
}
330
2
100
AcDbSymbolTableRecord
100
AcDbLayerTableRecord
  2
Documentation_ Floor_Pen_No__2
 70
     0
 62
     7
  6
Continuous
370
    13
390
F
347
3E
348
0
  0
LAYER
  5
50
102
{ACAD_XDICTIONARY
360
6D8
102
}
330
2
100
AcDbSymbolTableRecord
100
AcDbLayerTableRecord
  2
0_Pen_No__1
 70
     0
 62
     7
  6
Continuous
370
     0
390
F
347
3E
348
0
  0
LAYER
  5
55
102
{ACAD_XDICTIONARY
360
6DA
102
}
330
2
100
AcDbSymbolTableRecord
100
AcDbLayerTableRecord
  2
Documentation_ Floor_Pen_No__4
 70
     0
 62
     7
  6
Continuous
370
    25
390
F
347
3E
348
0
  0
LAYER
  5
78
102
{ACAD_XDICTIONARY
360
6DC
102
}
330
2
100
AcDbSymbolTableRecord
100
AcDbLayerTableRecord
  2
False Bits_ Plan_Pen_No__1
 70
     0
 62
     7
  6
Continuous
370
     0
390
F
347
3E
348
0
  0
LAYER
  5
81
102
{ACAD_XDICTIONARY
360
6DE
102
}
330
2
100
AcDbSymbolTableRecord
100
AcDbLayerTableRecord
  2
False Bits_ Plan_Pen_No__2
 70
     0
 62
     7
  6
Continuous
370
    13
390
F
347
3E
348
0
  0
LAYER
  5
B9
102
{ACAD_XDICTIONARY
360
6E0
102
}
330
2
100
AcDbSymbolTableRecord
100
AcDbLayerTableRecord
  2
Documentation_ Floor_Pen_No__1
 70
     0
 62
     7
  6
Continuous
370
     0
390
F
347
3E
348
0
  0
LAYER
  5
BB
102
{ACAD_XDICTIONARY
360
6E2
102
}
330
2
100
AcDbSymbolTableRecord
100
AcDbLayerTableRecord
  2
Documentation_ Floor
 70
     0
 62
     7
  6
Continuous
370
    -3
390
F
347
3E
348
0
  0
LAYER
  5
FE
102
{ACAD_XDICTIONARY
360
6E4
102
}
330
2
100
AcDbSymbolTableRecord
100
AcDbLayerTableRecord
  2
Documentation_ Floor_Pen_No__5
 70
     0
 62
     7
  6
Continuous
370
    35
390
F
347
3E
348
0
  0
LAYER
  5
675
102
{ACAD_XDICTIONARY
360
6E6
102
}
330
2
100
AcDbSymbolTableRecord
100
AcDbLayerTableRecord
  2
Fills_ Pattern_Pen_No__151
 70
     0
 62
   254
420
 15263976
  6
Continuous
370
    13
390
F
347
3E
348
0
  0
LAYER
  5
676
102
{ACAD_XDICTIONARY
360
6E8
102
}
330
2
100
AcDbSymbolTableRecord
100
AcDbLayerTableRecord
  2
Fills_ Pattern_Pen_No__2
 70
     0
 62
     7
  6
Continuous
370
    13
390
F
347
3E
348
0
  0
LAYER
  5
677
102
{ACAD_XDICTIONARY
360
6EA
102
}
330
2
100
AcDbSymbolTableRecord
100
AcDbLayerTableRecord
  2
Fills_ Pattern_Pen_No__1
 70
     0
 62
     7
  6
Continuous
370
     0
390
F
347
3E
348
0
  0
ENDTAB
  0
TABLE
  2
STYLE
  5
3
330
0
100
AcDbSymbolTable
 70
     2
  0
STYLE
  5
11
330
3
100
AcDbSymbolTableRecord
100
AcDbTextStyleTableRecord
  2
Standard
 70
     0
 40
0.0
 41
1.0
 50
0.0
 71
     0
 42
0.2
  3
txt
  4

  0
STYLE
  5
102
330
3
100
AcDbSymbolTableRecord
100
AcDbTextStyleTableRecord
  2
GENERATED_STYLE_1
 70
     0
 40
0.0
 41
1.0
 50
0.0
 71
     0
 42
0.2
  3
arial.ttf
  4

1001
ACAD
1000
Arial
1071
       34
  0
ENDTAB
  0
TABLE
  2
VIEW
  5
6
330
0
100
AcDbSymbolTable
 70
     2
  0
ENDTAB
  0
TABLE
  2
UCS
  5
7
330
0
100
AcDbSymbolTable
 70
     0
  0
ENDTAB
  0
TABLE
  2
APPID
  5
9
330
0
100
AcDbSymbolTable
 70
    10
  0
APPID
  5
12
330
9
100
AcDbSymbolTableRecord
100
AcDbRegAppTableRecord
  2
ACAD
 70
     0
  0
APPID
  5
67C
330
9
100
AcDbSymbolTableRecord
100
AcDbRegAppTableRecord
  2
ACAD_PSEXT
 70
     0
  0
APPID
  5
67E
330
9
100
AcDbSymbolTableRecord
100
AcDbRegAppTableRecord
  2
AcadAnnotative
 70
     0
  0
APPID
  5
67F
330
9
100
AcDbSymbolTableRecord
100
AcDbRegAppTableRecord
  2
ACAD_DSTYLE_DIMJAG
 70
     0
  0
APPID
  5
680
330
9
100
AcDbSymbolTableRecord
100
AcDbRegAppTableRecord
  2
ACAD_DSTYLE_DIMTALN
 70
     0
  0
APPID
  5
683
330
9
100
AcDbSymbolTableRecord
100
AcDbRegAppTableRecord
  2
AcAecLayerStandard
 70
     0
  0
APPID
  5
684
330
9
100
AcDbSymbolTableRecord
100
AcDbRegAppTableRecord
  2
AcCmTransparency
 70
     0
  0
APPID
  5
6B8
330
9
100
AcDbSymbolTableRecord
100
AcDbRegAppTableRecord
  2
ACAD_NAV_VCDISPLAY
 70
     0
  0
APPID
  5
6C8
330
9
100
AcDbSymbolTableRecord
100
AcDbRegAppTableRecord
  2
ACAD_EXEMPT_FROM_CAD_STANDARDS
 70
     0
  0
APPID
  5
754
330
9
100
AcDbSymbolTableRecord
100
AcDbRegAppTableRecord
  2
ACAD_MLEADERVER
 70
     0
  0
ENDTAB
  0
TABLE
  2
DIMSTYLE
  5
A
330
0
100
AcDbSymbolTable
 70
     3
100
AcDbDimStyleTable
 71
     1
340
27
  0
DIMSTYLE
105
27
330
A
100
AcDbSymbolTableRecord
100
AcDbDimStyleTableRecord
  2
Standard
 70
     0
340
11
  0
DIMSTYLE
105
105
102
{ACAD_REACTORS
330
104
330
115
330
121
102
}
330
A
100
AcDbSymbolTableRecord
100
AcDbDimStyleTableRecord
  2
GENERATED_STYLE__1
 70
     0
 41
3.04
 42
10.0
 73
     0
 74
     0
 77
     1
140
5.0
172
     1
176
     7
177
     7
178
     7
271
     0
288
     1
340
102
342
106
343
106
344
106
  0
DIMSTYLE
105
12E
102
{ACAD_REACTORS
330
12D
102
}
330
A
100
AcDbSymbolTableRecord
100
AcDbDimStyleTableRecord
  2
GENERATED_STYLE__2
 70
     0
 41
3.04
 42
10.0
 77
     1
140
5.0
172
     1
176
     7
177
     7
178
     7
271
     0
288
     1
340
102
342
106
343
106
344
106
  0
ENDTAB
  0
TABLE
  2
BLOCK_RECORD
  5
1
330
0
100
AcDbSymbolTable
 70
    26
  0
BLOCK_RECORD
  5
1F
330
1
100
AcDbSymbolTableRecord
100
AcDbBlockTableRecord
  2
*Model_Space
340
22
 70
     0
280
     1
281
     0
  0
BLOCK_RECORD
  5
68B
102
{ACAD_XDICTIONARY
360
6A9
102
}
330
1
100
AcDbSymbolTableRecord
100
AcDbBlockTableRecord
  2
*Paper_Space
340
68A
 70
     0
280
     1
281
     0
  0
BLOCK_RECORD
  5
B5
330
1
100
AcDbSymbolTableRecord
100
AcDbBlockTableRecord
  2
PolyLine_1
340
0
102
{BLKREFS
331
BD
102
}
 70
     0
280
     1
281
     0
  0
BLOCK_RECORD
  5
BE
330
1
100
AcDbSymbolTableRecord
100
AcDbBlockTableRecord
  2
PolyLine_2
340
0
102
{BLKREFS
331
C4
102
}
 70
     0
280
     1
281
     0
  0
BLOCK_RECORD
  5
C5
330
1
100
AcDbSymbolTableRecord
100
AcDbBlockTableRecord
  2
PolyLine_3
340
0
102
{BLKREFS
331
CB
102
}
 70
     0
280
     1
281
     0
  0
BLOCK_RECORD
  5
CC
330
1
100
AcDbSymbolTableRecord
100
AcDbBlockTableRecord
  2
PolyLine_4
340
0
102
{BLKREFS
331
D2
102
}
 70
     0
280
     1
281
     0
  0
BLOCK_RECORD
  5
D3
330
1
100
AcDbSymbolTableRecord
100
AcDbBlockTableRecord
  2
PolyLine_5
340
0
102
{BLKREFS
331
D9
102
}
 70
     0
280
     1
281
     0
  0
BLOCK_RECORD
  5
DA
330
1
100
AcDbSymbolTableRecord
100
AcDbBlockTableRecord
  2
PolyLine_6
340
0
102
{BLKREFS
331
E0
102
}
 70
     0
280
     1
281
     0
  0
BLOCK_RECORD
  5
E1
330
1
100
AcDbSymbolTableRecord
100
AcDbBlockTableRecord
  2
PolyLine_7
340
0
102
{BLKREFS
331
E7
102
}
 70
     0
280
     1
281
     0
  0
BLOCK_RECORD
  5
E8
330
1
100
AcDbSymbolTableRecord
100
AcDbBlockTableRecord
  2
PolyLine_8
340
0
102
{BLKREFS
331
EE
102
}
 70
     0
280
     1
281
     0
  0
BLOCK_RECORD
  5
EF
330
1
100
AcDbSymbolTableRecord
100
AcDbBlockTableRecord
  2
PolyLine_9
340
0
102
{BLKREFS
331
F5
102
}
 70
     0
280
     1
281
     0
  0
BLOCK_RECORD
  5
F8
330
1
100
AcDbSymbolTableRecord
100
AcDbBlockTableRecord
  2
*D9
340
0
 70
     0
280
     1
281
     0
  0
BLOCK_RECORD
  5
106
330
1
100
AcDbSymbolTableRecord
100
AcDbBlockTableRecord
  2
ARROWHEAD_2
340
0
 70
     0
280
     1
281
     0
  0
BLOCK_RECORD
  5
10B
330
1
100
AcDbSymbolTableRecord
100
AcDbBlockTableRecord
  2
*D11
340
0
 70
     0
280
     1
281
     0
  0
BLOCK_RECORD
  5
116
330
1
100
AcDbSymbolTableRecord
100
AcDbBlockTableRecord
  2
*D12
340
0
 70
     0
280
     1
281
     0
  0
BLOCK_RECORD
  5
122
330
1
100
AcDbSymbolTableRecord
100
AcDbBlockTableRecord
  2
*D13
340
0
 70
     0
280
     1
281
     0
  0
BLOCK_RECORD
  5
139
330
1
100
AcDbSymbolTableRecord
100
AcDbBlockTableRecord
  2
Untitled _STORY_MARKER
340
0
 70
     0
280
     1
281
     0
  0
BLOCK_RECORD
  5
1C2
330
1
100
AcDbSymbolTableRecord
100
AcDbBlockTableRecord
  2
Fill_1
340
0
 70
     0
280
     1
281
     0
  0
BLOCK_RECORD
  5
1CE
330
1
100
AcDbSymbolTableRecord
100
AcDbBlockTableRecord
  2
*X16
340
0
102
{BLKREFS
331
1C4
102
}
 70
     0
280
     1
281
     0
  0
BLOCK_RECORD
  5
2B8
330
1
100
AcDbSymbolTableRecord
100
AcDbBlockTableRecord
  2
Fill_2
340
0
 70
     0
280
     1
281
     0
  0
BLOCK_RECORD
  5
2BC
330
1
100
AcDbSymbolTableRecord
100
AcDbBlockTableRecord
  2
*X18
340
0
102
{BLKREFS
331
2BA
102
}
 70
     0
280
     1
281
     0
  0
BLOCK_RECORD
  5
4DC
330
1
100
AcDbSymbolTableRecord
100
AcDbBlockTableRecord
  2
Fill_3
340
0
 70
     0
280
     1
281
     0
  0
BLOCK_RECORD
  5
4E4
330
1
100
AcDbSymbolTableRecord
100
AcDbBlockTableRecord
  2
*X20
340
0
102
{BLKREFS
331
4DE
102
}
 70
     0
280
     1
281
     0
  0
BLOCK_RECORD
  5
534
330
1
100
AcDbSymbolTableRecord
100
AcDbBlockTableRecord
  2
Line_1
340
0
 70
     0
280
     1
281
     0
  0
BLOCK_RECORD
  5
53C
330
1
100
AcDbSymbolTableRecord
100
AcDbBlockTableRecord
  2
Line_2
340
0
 70
     0
280
     1
281
     0
  0
BLOCK_RECORD
  5
544
330
1
100
AcDbSymbolTableRecord
100
AcDbBlockTableRecord
  2
PolyLine_10
340
0
 70
     0
280
     1
281
     0
  0
BLOCK_RECORD
  5
54A
330
1
100
AcDbSymbolTableRecord
100
AcDbBlockTableRecord
  2
PolyLine_11
340
0
 70
     0
280
     1
281
     0
  0
BLOCK_RECORD
  5
550
330
1
100
AcDbSymbolTableRecord
100
AcDbBlockTableRecord
  2
PolyLine_12
340
0
 70
     0
280
     1
281
     0
  0
ENDTAB
  0
ENDSEC
  0
SECTION
  2
BLOCKS
  0
BLOCK
  5
20
330
1F
100
AcDbEntity
  8
0
100
AcDbBlockBegin
  2
*Model_Space
 70
     0
 10
0.0
 20
0.0
 30
0.0
  3
*Model_Space
  1

  0
ENDBLK
  5
21
330
1F
100
AcDbEntity
  8
0
100
AcDbBlockEnd
  0
BLOCK
  5
6AA
330
68B
100
AcDbEntity
 67
     1
  8
0
100
AcDbBlockBegin
  2
*Paper_Space
 70
     0
 10
0.0
 20
0.0
 30
0.0
  3
*Paper_Space
  1

  0
ENDBLK
  5
6AB
330
68B
100
AcDbEntity
 67
     1
  8
0
100
AcDbBlockEnd
  0
BLOCK
  5
B6
330
B5
100
AcDbEntity
  8
0
100
AcDbBlockBegin
  2
PolyLine_1
 70
     0
 10
280.5297834736263
 20
556.0433891065669
 30
0.0
  3
PolyLine_1
  1

  0
CIRCLE
  5
B8
330
B5
100
AcDbEntity
  8
Documentation_ Floor_Pen_No__1
  6
Continuous
100
AcDbCircle
 10
287.5566663701834
 20
556.0433891065669
 30
0.0
 40
0.5
  0
HATCH
  5
BA
330
B5
100
AcDbEntity
  8
Documentation_ Floor
  6
Continuous
 62
    18
420
        0
370
     0
100
AcDbHatch
 10
0.0
 20
0.0
 30
0.0
210
0.0
220
0.0
230
1.0
  2
SOLID
 70
     1
 71
     0
 91
        1
 92
        3
 72
     0
 73
     1
 93
       16
 10
288.0566663701834
 20
556.0433891065669
 10
288.018606136439
 20
556.2347308227495
 10
287.9102197607767
 20
556.3969424971603
 10
287.748008086366
 20
556.5053288728226
 10
287.5566663701834
 20
556.543389106567
 10
287.3653246540008
 20
556.5053288728226
 10
287.2031129795901
 20
556.3969424971603
 10
287.0947266039278
 20
556.2347308227495
 10
287.0566663701834
 20
556.0433891065669
 10
287.0947266039278
 20
555.8520473903845
 10
287.2031129795901
 20
555.6898357159737
 10
287.3653246540008
 20
555.5814493403114
 10
287.5566663701834
 20
555.5433891065671
 10
287.748008086366
 20
555.5814493403114
 10
287.9102197607767
 20
555.6898357159737
 10
288.018606136439
 20
555.8520473903845
 97
        0
 75
     0
 76
     1
 98
        0
450
        0
451
        0
460
0.0
461
0.0
452
        1
462
0.0
453
        0
470

  0
LWPOLYLINE
  5
BC
330
B5
100
AcDbEntity
  8
Documentation_ Floor_Pen_No__1
  6
Continuous
100
AcDbPolyline
 90
        2
 70
   128
 43
0.0
 10
280.5297834736263
 20
556.0433891065669
 10
287.0566663701834
 20
556.0433891065669
  0
ENDBLK
  5
B7
330
B5
100
AcDbEntity
  8
0
100
AcDbBlockEnd
  0
BLOCK
  5
BF
330
BE
100
AcDbEntity
  8
0
100
AcDbBlockBegin
  2
PolyLine_2
 70
     0
 10
462.1370330517095
 20
556.4195831402145
 30
0.0
  3
PolyLine_2
  1

  0
CIRCLE
  5
C1
330
BE
100
AcDbEntity
  8
Documentation_ Floor_Pen_No__1
  6
Continuous
100
AcDbCircle
 10
374.350375915044
 20
556.4195831402145
 30
0.0
 40
0.5
  0
HATCH
  5
C2
330
BE
100
AcDbEntity
  8
Documentation_ Floor
  6
Continuous
 62
    18
420
        0
370
     0
100
AcDbHatch
 10
0.0
 20
0.0
 30
0.0
210
0.0
220
0.0
230
1.0
  2
SOLID
 70
     1
 71
     0
 91
        1
 92
        3
 72
     0
 73
     1
 93
       16
 10
374.850375915044
 20
556.4195831402145
 10
374.8123156812997
 20
556.6109248563971
 10
374.7039293056374
 20
556.7731365308078
 10
374.5417176312266
 20
556.8815229064702
 10
374.350375915044
 20
556.9195831402145
 10
374.1590341988615
 20
556.8815229064702
 10
373.9968225244508
 20
556.7731365308078
 10
373.8884361487884
 20
556.6109248563971
 10
373.850375915044
 20
556.4195831402145
 10
373.8884361487884
 20
556.228241424032
 10
373.9968225244508
 20
556.0660297496212
 10
374.1590341988615
 20
555.9576433739589
 10
374.350375915044
 20
555.9195831402146
 10
374.5417176312266
 20
555.9576433739589
 10
374.7039293056374
 20
556.0660297496212
 10
374.8123156812997
 20
556.228241424032
 97
        0
 75
     0
 76
     1
 98
        0
450
        0
451
        0
460
0.0
461
0.0
452
        1
462
0.0
453
        0
470

  0
LWPOLYLINE
  5
C3
330
BE
100
AcDbEntity
  8
Documentation_ Floor_Pen_No__1
  6
Continuous
100
AcDbPolyline
 90
        2
 70
   128
 43
0.0
 10
462.1370330517095
 20
556.4195831402145
 10
374.850375915044
 20
556.4195831402145
  0
ENDBLK
  5
C0
330
BE
100
AcDbEntity
  8
0
100
AcDbBlockEnd
  0
BLOCK
  5
C6
330
C5
100
AcDbEntity
  8
0
100
AcDbBlockBegin
  2
PolyLine_3
 70
     0
 10
462.1370330517095
 20
540.7110707475545
 30
0.0
  3
PolyLine_3
  1

  0
CIRCLE
  5
C8
330
C5
100
AcDbEntity
  8
Documentation_ Floor_Pen_No__1
  6
Continuous
100
AcDbCircle
 10
388.1370330515902
 20
540.7110707475545
 30
0.0
 40
0.5
  0
HATCH
  5
C9
330
C5
100
AcDbEntity
  8
Documentation_ Floor
  6
Continuous
 62
    18
420
        0
370
     0
100
AcDbHatch
 10
0.0
 20
0.0
 30
0.0
210
0.0
220
0.0
230
1.0
  2
SOLID
 70
     1
 71
     0
 91
        1
 92
        3
 72
     0
 73
     1
 93
       16
 10
388.6370330515902
 20
540.7110707475545
 10
388.5989728178458
 20
540.9024124637369
 10
388.4905864421835
 20
541.0646241381477
 10
388.3283747677727
 20
541.17301051381
 10
388.1370330515902
 20
541.2110707475543
 10
387.9456913354076
 20
541.17301051381
 10
387.7834796609969
 20
541.0646241381477
 10
387.6750932853346
 20
540.9024124637369
 10
387.6370330515902
 20
540.7110707475545
 10
387.6750932853346
 20
540.5197290313719
 10
387.7834796609969
 20
540.3575173569611
 10
387.9456913354076
 20
540.2491309812988
 10
388.1370330515902
 20
540.2110707475544
 10
388.3283747677727
 20
540.2491309812988
 10
388.4905864421835
 20
540.3575173569611
 10
388.5989728178458
 20
540.5197290313719
 97
        0
 75
     0
 76
     1
 98
        0
450
        0
451
        0
460
0.0
461
0.0
452
        1
462
0.0
453
        0
470

  0
LWPOLYLINE
  5
CA
330
C5
100
AcDbEntity
  8
Documentation_ Floor_Pen_No__1
  6
Continuous
100
AcDbPolyline
 90
        2
 70
   128
 43
0.0
 10
462.1370330517095
 20
540.7110707475545
 10
388.6370330515902
 20
540.7110707475545
  0
ENDBLK
  5
C7
330
C5
100
AcDbEntity
  8
0
100
AcDbBlockEnd
  0
BLOCK
  5
CD
330
CC
100
AcDbEntity
  8
0
100
AcDbBlockBegin
  2
PolyLine_4
 70
     0
 10
462.1370330517095
 20
525.1113907171975
 30
0.0
  3
PolyLine_4
  1

  0
CIRCLE
  5
CF
330
CC
100
AcDbEntity
  8
Documentation_ Floor_Pen_No__1
  6
Continuous
100
AcDbCircle
 10
404.6359039088262
 20
525.1113907171975
 30
0.0
 40
0.5
  0
HATCH
  5
D0
330
CC
100
AcDbEntity
  8
Documentation_ Floor
  6
Continuous
 62
    18
420
        0
370
     0
100
AcDbHatch
 10
0.0
 20
0.0
 30
0.0
210
0.0
220
0.0
230
1.0
  2
SOLID
 70
     1
 71
     0
 91
        1
 92
        3
 72
     0
 73
     1
 93
       16
 10
405.1359039088262
 20
525.1113907171975
 10
405.0978436750818
 20
525.3027324333801
 10
404.9894572994195
 20
525.4649441077908
 10
404.8272456250087
 20
525.5733304834532
 10
404.6359039088262
 20
525.6113907171975
 10
404.4445621926436
 20
525.5733304834532
 10
404.2823505182329
 20
525.4649441077908
 10
404.1739641425706
 20
525.3027324333801
 10
404.1359039088262
 20
525.1113907171975
 10
404.1739641425706
 20
524.920049001015
 10
404.2823505182329
 20
524.7578373266043
 10
404.4445621926436
 20
524.6494509509419
 10
404.6359039088262
 20
524.6113907171976
 10
404.8272456250087
 20
524.6494509509419
 10
404.9894572994195
 20
524.7578373266043
 10
405.0978436750818
 20
524.920049001015
 97
        0
 75
     0
 76
     1
 98
        0
450
        0
451
        0
460
0.0
461
0.0
452
        1
462
0.0
453
        0
470

  0
LWPOLYLINE
  5
D1
330
CC
100
AcDbEntity
  8
Documentation_ Floor_Pen_No__1
  6
Continuous
100
AcDbPolyline
 90
        2
 70
   128
 43
0.0
 10
462.1370330517095
 20
525.1113907171975
 10
405.1359039088262
 20
525.1113907171975
  0
ENDBLK
  5
CE
330
CC
100
AcDbEntity
  8
0
100
AcDbBlockEnd
  0
BLOCK
  5
D4
330
D3
100
AcDbEntity
  8
0
100
AcDbBlockBegin
  2
PolyLine_5
 70
     0
 10
462.1370330517095
 20
509.4283774771935
 30
0.0
  3
PolyLine_5
  1

  0
CIRCLE
  5
D6
330
D3
100
AcDbEntity
  8
Documentation_ Floor_Pen_No__1
  6
Continuous
100
AcDbCircle
 10
429.132989333766
 20
509.4283774771935
 30
0.0
 40
0.5
  0
HATCH
  5
D7
330
D3
100
AcDbEntity
  8
Documentation_ Floor
  6
Continuous
 62
    18
420
        0
370
     0
100
AcDbHatch
 10
0.0
 20
0.0
 30
0.0
210
0.0
220
0.0
230
1.0
  2
SOLID
 70
     1
 71
     0
 91
        1
 92
        3
 72
     0
 73
     1
 93
       16
 10
429.6329893337659
 20
509.4283774771935
 10
429.5949291000216
 20
509.619719193376
 10
429.4865427243592
 20
509.7819308677868
 10
429.3243310499486
 20
509.8903172434491
 10
429.132989333766
 20
509.9283774771934
 10
428.9416476175833
 20
509.8903172434491
 10
428.7794359431726
 20
509.7819308677868
 10
428.6710495675103
 20
509.619719193376
 10
428.632989333766
 20
509.4283774771935
 10
428.6710495675103
 20
509.237035761011
 10
428.7794359431726
 20
509.0748240866002
 10
428.9416476175833
 20
508.9664377109378
 10
429.132989333766
 20
508.9283774771935
 10
429.3243310499486
 20
508.9664377109378
 10
429.4865427243592
 20
509.0748240866002
 10
429.5949291000216
 20
509.237035761011
 97
        0
 75
     0
 76
     1
 98
        0
450
        0
451
        0
460
0.0
461
0.0
452
        1
462
0.0
453
        0
470

  0
LWPOLYLINE
  5
D8
330
D3
100
AcDbEntity
  8
Documentation_ Floor_Pen_No__1
  6
Continuous
100
AcDbPolyline
 90
        2
 70
   128
 43
0.0
 10
462.1370330517095
 20
509.4283774771935
 10
429.6329893337659
 20
509.4283774771935
  0
ENDBLK
  5
D5
330
D3
100
AcDbEntity
  8
0
100
AcDbBlockEnd
  0
BLOCK
  5
DB
330
DA
100
AcDbEntity
  8
0
100
AcDbBlockBegin
  2
PolyLine_6
 70
     0
 10
462.1370330517095
 20
446.6339033110336
 30
0.0
  3
PolyLine_6
  1

  0
CIRCLE
  5
DD
330
DA
100
AcDbEntity
  8
Documentation_ Floor_Pen_No__1
  6
Continuous
100
AcDbCircle
 10
402.1497590109865
 20
438.862732978073
 30
0.0
 40
0.5
  0
HATCH
  5
DE
330
DA
100
AcDbEntity
  8
Documentation_ Floor
  6
Continuous
 62
    18
420
        0
370
     0
100
AcDbHatch
 10
0.0
 20
0.0
 30
0.0
210
0.0
220
0.0
230
1.0
  2
SOLID
 70
     1
 71
     0
 91
        1
 92
        3
 72
     0
 73
     1
 93
       16
 10
402.6497590109864
 20
438.862732978073
 10
402.6116987772421
 20
439.0540746942555
 10
402.5033124015797
 20
439.2162863686662
 10
402.3411007271691
 20
439.3246727443286
 10
402.1497590109865
 20
439.362732978073
 10
401.9584172948039
 20
439.3246727443286
 10
401.7962056203931
 20
439.2162863686662
 10
401.6878192447308
 20
439.0540746942555
 10
401.6497590109865
 20
438.862732978073
 10
401.6878192447308
 20
438.6713912618904
 10
401.7962056203931
 20
438.5091795874797
 10
401.9584172948039
 20
438.4007932118173
 10
402.1497590109865
 20
438.3627329780729
 10
402.3411007271691
 20
438.4007932118173
 10
402.5033124015797
 20
438.5091795874797
 10
402.6116987772421
 20
438.6713912618904
 97
        0
 75
     0
 76
     1
 98
        0
450
        0
451
        0
460
0.0
461
0.0
452
        1
462
0.0
453
        0
470

  0
LWPOLYLINE
  5
DF
330
DA
100
AcDbEntity
  8
Documentation_ Floor_Pen_No__1
  6
Continuous
100
AcDbPolyline
 90
        3
 70
   128
 43
0.0
 10
462.1370330517095
 20
446.6339033110336
 10
402.1497590109865
 20
446.6339033110336
 10
402.1497590109865
 20
439.362732978073
  0
ENDBLK
  5
DC
330
DA
100
AcDbEntity
  8
0
100
AcDbBlockEnd
  0
BLOCK
  5
E2
330
E1
100
AcDbEntity
  8
0
100
AcDbBlockBegin
  2
PolyLine_7
 70
     0
 10
462.1370330517095
 20
414.8354026465122
 30
0.0
  3
PolyLine_7
  1

  0
CIRCLE
  5
E4
330
E1
100
AcDbEntity
  8
Documentation_ Floor_Pen_No__1
  6
Continuous
100
AcDbCircle
 10
402.1497590109865
 20
387.142229561434
 30
0.0
 40
0.5
  0
HATCH
  5
E5
330
E1
100
AcDbEntity
  8
Documentation_ Floor
  6
Continuous
 62
    18
420
        0
370
     0
100
AcDbHatch
 10
0.0
 20
0.0
 30
0.0
210
0.0
220
0.0
230
1.0
  2
SOLID
 70
     1
 71
     0
 91
        1
 92
        3
 72
     0
 73
     1
 93
       16
 10
402.6497590109864
 20
387.142229561434
 10
402.6116987772421
 20
387.3335712776166
 10
402.5033124015797
 20
387.4957829520273
 10
402.3411007271691
 20
387.6041693276896
 10
402.1497590109865
 20
387.642229561434
 10
401.9584172948039
 20
387.6041693276896
 10
401.7962056203931
 20
387.4957829520273
 10
401.6878192447308
 20
387.3335712776166
 10
401.6497590109865
 20
387.142229561434
 10
401.6878192447308
 20
386.9508878452514
 10
401.7962056203931
 20
386.7886761708407
 10
401.9584172948039
 20
386.6802897951783
 10
402.1497590109865
 20
386.642229561434
 10
402.3411007271691
 20
386.6802897951783
 10
402.5033124015797
 20
386.7886761708407
 10
402.6116987772421
 20
386.9508878452514
 97
        0
 75
     0
 76
     1
 98
        0
450
        0
451
        0
460
0.0
461
0.0
452
        1
462
0.0
453
        0
470

  0
LWPOLYLINE
  5
E6
330
E1
100
AcDbEntity
  8
Documentation_ Floor_Pen_No__1
  6
Continuous
100
AcDbPolyline
 90
        3
 70
   128
 43
0.0
 10
462.1370330517095
 20
414.8354026465122
 10
402.1497590109865
 20
414.8354026465122
 10
402.1497590109865
 20
387.642229561434
  0
ENDBLK
  5
E3
330
E1
100
AcDbEntity
  8
0
100
AcDbBlockEnd
  0
BLOCK
  5
E9
330
E8
100
AcDbEntity
  8
0
100
AcDbBlockBegin
  2
PolyLine_8
 70
     0
 10
462.922016903866
 20
477.7427090132191
 30
0.0
  3
PolyLine_8
  1

  0
CIRCLE
  5
EB
330
E8
100
AcDbEntity
  8
Documentation_ Floor_Pen_No__1
  6
Continuous
100
AcDbCircle
 10
415.9752217508015
 20
484.6512674972821
 30
0.0
 40
0.5
  0
HATCH
  5
EC
330
E8
100
AcDbEntity
  8
Documentation_ Floor
  6
Continuous
 62
    18
420
        0
370
     0
100
AcDbHatch
 10
0.0
 20
0.0
 30
0.0
210
0.0
220
0.0
230
1.0
  2
SOLID
 70
     1
 71
     0
 91
        1
 92
        3
 72
     0
 73
     1
 93
       16
 10
416.4752217508015
 20
484.6512674972821
 10
416.4371615170571
 20
484.8426092134647
 10
416.3287751413947
 20
485.0048208878754
 10
416.166563466984
 20
485.1132072635378
 10
415.9752217508015
 20
485.1512674972822
 10
415.7838800346189
 20
485.1132072635378
 10
415.6216683602082
 20
485.0048208878754
 10
415.5132819845459
 20
484.8426092134647
 10
415.4752217508015
 20
484.6512674972821
 10
415.5132819845459
 20
484.4599257810996
 10
415.6216683602082
 20
484.2977141066889
 10
415.7838800346189
 20
484.1893277310265
 10
415.9752217508015
 20
484.1512674972821
 10
416.166563466984
 20
484.1893277310265
 10
416.3287751413947
 20
484.2977141066889
 10
416.4371615170571
 20
484.4599257810996
 97
        0
 75
     0
 76
     1
 98
        0
450
        0
451
        0
460
0.0
461
0.0
452
        1
462
0.0
453
        0
470

  0
LWPOLYLINE
  5
ED
330
E8
100
AcDbEntity
  8
Documentation_ Floor_Pen_No__1
  6
Continuous
100
AcDbPolyline
 90
        3
 70
   128
 43
0.0
 10
462.922016903866
 20
477.7427090132191
 10
415.9752217508015
 20
477.7427090132191
 10
415.9752217508015
 20
484.1512674972821
  0
ENDBLK
  5
EA
330
E8
100
AcDbEntity
  8
0
100
AcDbBlockEnd
  0
BLOCK
  5
F0
330
EF
100
AcDbEntity
  8
0
100
AcDbBlockBegin
  2
PolyLine_9
 70
     0
 10
462.4547292796895
 20
368.2301326615423
 30
0.0
  3
PolyLine_9
  1

  0
CIRCLE
  5
F2
330
EF
100
AcDbEntity
  8
Documentation_ Floor_Pen_No__1
  6
Continuous
100
AcDbCircle
 10
447.2527977530533
 20
368.2301326615423
 30
0.0
 40
0.5
  0
HATCH
  5
F3
330
EF
100
AcDbEntity
  8
Documentation_ Floor
  6
Continuous
 62
    18
420
        0
370
     0
100
AcDbHatch
 10
0.0
 20
0.0
 30
0.0
210
0.0
220
0.0
230
1.0
  2
SOLID
 70
     1
 71
     0
 91
        1
 92
        3
 72
     0
 73
     1
 93
       16
 10
447.7527977530534
 20
368.2301326615423
 10
447.714737519309
 20
368.4214743777249
 10
447.6063511436467
 20
368.5836860521356
 10
447.4441394692359
 20
368.692072427798
 10
447.2527977530533
 20
368.7301326615423
 10
447.0614560368708
 20
368.692072427798
 10
446.8992443624601
 20
368.5836860521356
 10
446.7908579867977
 20
368.4214743777249
 10
446.7527977530533
 20
368.2301326615423
 10
446.7908579867977
 20
368.0387909453597
 10
446.8992443624601
 20
367.876579270949
 10
447.0614560368708
 20
367.7681928952867
 10
447.2527977530533
 20
367.7301326615423
 10
447.4441394692359
 20
367.7681928952867
 10
447.6063511436467
 20
367.876579270949
 10
447.714737519309
 20
368.0387909453597
 97
        0
 75
     0
 76
     1
 98
        0
450
        0
451
        0
460
0.0
461
0.0
452
        1
462
0.0
453
        0
470

  0
LWPOLYLINE
  5
F4
330
EF
100
AcDbEntity
  8
Documentation_ Floor_Pen_No__1
  6
Continuous
100
AcDbPolyline
 90
        2
 70
   128
 43
0.0
 10
462.4547292796895
 20
368.2301326615423
 10
447.7527977530534
 20
368.2301326615423
  0
ENDBLK
  5
F1
330
EF
100
AcDbEntity
  8
0
100
AcDbBlockEnd
  0
BLOCK
  5
F9
330
F8
100
AcDbEntity
  8
0
100
AcDbBlockBegin
  2
*D9
 70
     1
 10
0.0
 20
0.0
 30
0.0
  3
*D9
  1

  0
LINE
  5
FB
330
F8
100
AcDbEntity
  8
Documentation_ Floor_Pen_No__1
  6
Continuous
440
 16777216
100
AcDbLine
 10
447.2527977530533
 20
346.4184145496886
 30
0.0
 11
447.2527977530533
 21
348.3744145496887
 31
0.0
  0
LINE
  5
FC
330
F8
100
AcDbEntity
  8
Documentation_ Floor_Pen_No__1
  6
Continuous
440
 16777216
100
AcDbLine
 10
447.2527977530533
 20
348.3744145496887
 30
0.0
 11
447.2527977530533
 21
373.3744145496908
 31
0.0
  0
LINE
  5
FD
330
F8
100
AcDbEntity
  8
Documentation_ Floor_Pen_No__5
  6
Continuous
440
 16777216
100
AcDbLine
 10
445.2527977530533
 20
349.5291145496886
 30
0.0
 11
449.2527977530533
 21
347.2197145496886
 31
0.0
  0
LINE
  5
FF
330
F8
100
AcDbEntity
  8
Documentation_ Floor_Pen_No__1
  6
Continuous
440
 16777216
100
AcDbLine
 10
450.2527977530533
 20
348.3744145496887
 30
0.0
 11
437.2527977530533
 21
348.3744145496887
 31
0.0
  0
LINE
  5
100
330
F8
100
AcDbEntity
  8
Documentation_ Floor_Pen_No__1
  6
Continuous
440
 16777216
100
AcDbLine
 10
450.2527977530533
 20
373.3744145496908
 30
0.0
 11
437.2527977530533
 21
373.3744145496908
 31
0.0
  0
LINE
  5
101
330
F8
100
AcDbEntity
  8
Documentation_ Floor_Pen_No__5
  6
Continuous
440
 16777216
100
AcDbLine
 10
445.2527977530533
 20
374.5291145496908
 30
0.0
 11
449.2527977530533
 21
372.2197145496908
 31
0.0
  0
MTEXT
  5
103
330
F8
100
AcDbEntity
  8
Documentation_ Floor_Pen_No__1
440
 16777216
100
AcDbMText
 10
446.252797775405
 20
357.080114412602
 30
0.0
 40
5.0
 41
0.0
 46
0.0
 71
     7
 72
     1
  1
{25}
  7
GENERATED_STYLE_1
 11
0.0000000000000001
 21
1.0
 31
0.0
 73
     1
 44
1.0
  0
ENDBLK
  5
FA
330
F8
100
AcDbEntity
  8
0
100
AcDbBlockEnd
  0
BLOCK
  5
107
330
106
100
AcDbEntity
  8
0
100
AcDbBlockBegin
  2
ARROWHEAD_2
 70
     0
 10
0.0
 20
0.0
 30
0.0
  3
ARROWHEAD_2
  1

  0
LINE
  5
109
330
106
100
AcDbEntity
  8
0
  6
Continuous
 62
     0
370
     0
100
AcDbLine
 10
-0.3781315
 20
-0.6550000000000001
 30
0.0
 11
0.3781315
 21
0.6550000000000001
 31
0.0
  0
LINE
  5
10A
330
106
100
AcDbEntity
  8
0
  6
Continuous
 62
     0
370
     0
100
AcDbLine
 10
0.0
 20
0.0
 30
0.0
 11
-1.0
 21
0.0
 31
0.0
  0
ENDBLK
  5
108
330
106
100
AcDbEntity
  8
0
100
AcDbBlockEnd
  0
BLOCK
  5
10C
330
10B
100
AcDbEntity
  8
0
100
AcDbBlockBegin
  2
*D11
 70
     1
 10
0.0
 20
0.0
 30
0.0
  3
*D11
  1

  0
LINE
  5
10E
330
10B
100
AcDbEntity
  8
Documentation_ Floor_Pen_No__1
  6
Continuous
440
 16777216
100
AcDbLine
 10
450.2527977530533
 20
373.3744145496908
 30
0.0
 11
437.2527977530533
 21
373.3744145496908
 31
0.0
  0
LINE
  5
10F
330
10B
100
AcDbEntity
  8
Documentation_ Floor_Pen_No__1
  6
Continuous
440
 16777216
100
AcDbLine
 10
447.2527977530533
 20
373.3744145496908
 30
0.0
 11
447.2527977530533
 21
383.3744145496887
 31
0.0
  0
LINE
  5
110
330
10B
100
AcDbEntity
  8
Documentation_ Floor_Pen_No__5
  6
Continuous
440
 16777216
100
AcDbLine
 10
445.2527977530533
 20
374.5291145496908
 30
0.0
 11
449.2527977530533
 21
372.2197145496908
 31
0.0
  0
LINE
  5
111
330
10B
100
AcDbEntity
  8
Documentation_ Floor_Pen_No__5
  6
Continuous
440
 16777216
100
AcDbLine
 10
449.2527977530533
 20
382.2197145496886
 30
0.0
 11
445.2527977530533
 21
384.5291145496887
 31
0.0
  0
LINE
  5
112
330
10B
100
AcDbEntity
  8
Documentation_ Floor_Pen_No__1
  6
Continuous
440
 16777216
100
AcDbLine
 10
447.2527977530533
 20
383.3744145496887
 30
0.0
 11
447.2527977530533
 21
385.3304145496887
 31
0.0
  0
LINE
  5
113
330
10B
100
AcDbEntity
  8
Documentation_ Floor_Pen_No__1
  6
Continuous
440
 16777216
100
AcDbLine
 10
450.2527977530533
 20
383.3744145496887
 30
0.0
 11
437.2527977530533
 21
383.3744145496887
 31
0.0
  0
MTEXT
  5
114
330
10B
100
AcDbEntity
  8
Documentation_ Floor_Pen_No__1
440
 16777216
100
AcDbMText
 10
446.252797775405
 20
374.580114412602
 30
0.0
 40
5.0
 41
0.0
 46
0.0
 71
     7
 72
     1
  1
{10}
  7
GENERATED_STYLE_1
 11
0.0000000000000001
 21
1.0
 31
0.0
 73
     1
 44
1.0
  0
ENDBLK
  5
10D
330
10B
100
AcDbEntity
  8
0
100
AcDbBlockEnd
  0
BLOCK
  5
117
330
116
100
AcDbEntity
  8
0
100
AcDbBlockBegin
  2
*D12
 70
     1
 10
0.0
 20
0.0
 30
0.0
  3
*D12
  1

  0
LINE
  5
119
330
116
100
AcDbEntity
  8
Documentation_ Floor_Pen_No__1
  6
Continuous
440
 16777216
100
AcDbLine
 10
368.7009690295146
 20
346.4184145496886
 30
0.0
 11
368.7009690295146
 21
348.3744145496887
 31
0.0
  0
LINE
  5
11A
330
116
100
AcDbEntity
  8
Documentation_ Floor_Pen_No__1
  6
Continuous
440
 16777216
100
AcDbLine
 10
368.7009690295146
 20
348.3744145496887
 30
0.0
 11
368.7009690295146
 21
383.3744145496887
 31
0.0
  0
LINE
  5
11B
330
116
100
AcDbEntity
  8
Documentation_ Floor_Pen_No__5
  6
Continuous
440
 16777216
100
AcDbLine
 10
366.7009690295146
 20
349.5291145496886
 30
0.0
 11
370.7009690295146
 21
347.2197145496886
 31
0.0
  0
LINE
  5
11C
330
116
100
AcDbEntity
  8
Documentation_ Floor_Pen_No__5
  6
Continuous
440
 16777216
100
AcDbLine
 10
370.7009690295146
 20
382.2197145496886
 30
0.0
 11
366.7009690295146
 21
384.5291145496887
 31
0.0
  0
LINE
  5
11D
330
116
100
AcDbEntity
  8
Documentation_ Floor_Pen_No__1
  6
Continuous
440
 16777216
100
AcDbLine
 10
368.7009690295146
 20
383.3744145496887
 30
0.0
 11
368.7009690295146
 21
385.3304145496887
 31
0.0
  0
LINE
  5
11E
330
116
100
AcDbEntity
  8
Documentation_ Floor_Pen_No__1
  6
Continuous
440
 16777216
100
AcDbLine
 10
378.7009690295146
 20
348.3744145496887
 30
0.0
 11
365.7009690295146
 21
348.3744145496887
 31
0.0
  0
LINE
  5
11F
330
116
100
AcDbEntity
  8
Documentation_ Floor_Pen_No__1
  6
Continuous
440
 16777216
100
AcDbLine
 10
378.7009690295146
 20
383.3744145496887
 30
0.0
 11
365.7009690295146
 21
383.3744145496887
 31
0.0
  0
MTEXT
  5
120
330
116
100
AcDbEntity
  8
Documentation_ Floor_Pen_No__1
440
 16777216
100
AcDbMText
 10
367.7009690518663
 20
362.0801144126009
 30
0.0
 40
5.0
 41
0.0
 46
0.0
 71
     7
 72
     1
  1
{35}
  7
GENERATED_STYLE_1
 11
0.0000000000000001
 21
1.0
 31
0.0
 73
     1
 44
1.0
  0
ENDBLK
  5
118
330
116
100
AcDbEntity
  8
0
100
AcDbBlockEnd
  0
BLOCK
  5
123
330
122
100
AcDbEntity
  8
0
100
AcDbBlockBegin
  2
*D13
 70
     1
 10
0.0
 20
0.0
 30
0.0
  3
*D13
  1

  0
LINE
  5
125
330
122
100
AcDbEntity
  8
Documentation_ Floor_Pen_No__1
  6
Continuous
440
 16777216
100
AcDbLine
 10
351.4664306948294
 20
404.537796373226
 30
0.0
 11
353.4224306948293
 21
404.537796373226
 31
0.0
  0
LINE
  5
126
330
122
100
AcDbEntity
  8
Documentation_ Floor_Pen_No__1
  6
Continuous
440
 16777216
100
AcDbLine
 10
353.4224306948293
 20
404.537796373226
 30
0.0
 11
386.1370330515947
 21
404.537796373226
 31
0.0
  0
LINE
  5
127
330
122
100
AcDbEntity
  8
Documentation_ Floor_Pen_No__5
  6
Continuous
440
 16777216
100
AcDbLine
 10
354.5771306948294
 20
406.537796373226
 30
0.0
 11
352.2677306948294
 21
402.537796373226
 31
0.0
  0
LINE
  5
128
330
122
100
AcDbEntity
  8
Documentation_ Floor_Pen_No__5
  6
Continuous
440
 16777216
100
AcDbLine
 10
384.9823330515948
 20
402.537796373226
 30
0.0
 11
387.2917330515948
 21
406.537796373226
 31
0.0
  0
LINE
  5
129
330
122
100
AcDbEntity
  8
Documentation_ Floor_Pen_No__1
  6
Continuous
440
 16777216
100
AcDbLine
 10
386.1370330515947
 20
404.537796373226
 30
0.0
 11
388.0930330515948
 21
404.537796373226
 31
0.0
  0
LINE
  5
12A
330
122
100
AcDbEntity
  8
Documentation_ Floor_Pen_No__1
  6
Continuous
440
 16777216
100
AcDbLine
 10
353.4224306948293
 20
394.5377963732261
 30
0.0
 11
353.4224306948293
 21
407.537796373226
 31
0.0
  0
LINE
  5
12B
330
122
100
AcDbEntity
  8
Documentation_ Floor_Pen_No__1
  6
Continuous
440
 16777216
100
AcDbLine
 10
386.1370330515947
 20
394.5377963732261
 30
0.0
 11
386.1370330515947
 21
407.537796373226
 31
0.0
  0
MTEXT
  5
12C
330
122
100
AcDbEntity
  8
Documentation_ Floor_Pen_No__1
440
 16777216
100
AcDbMText
 10
365.9854317361244
 20
405.5377963508743
 30
0.0
 40
5.0
 41
0.0
 46
0.0
 71
     7
 72
     1
  1
{35}
  7
GENERATED_STYLE_1
 73
     1
 44
1.0
  0
ENDBLK
  5
124
330
122
100
AcDbEntity
  8
0
100
AcDbBlockEnd
  0
BLOCK
  5
13A
330
139
100
AcDbEntity
  8
0
100
AcDbBlockBegin
  2
Untitled _STORY_MARKER
 70
     0
 10
0.0
 20
0.0
 30
0.0
  3
Untitled _STORY_MARKER
  1

  0
ENDBLK
  5
13B
330
139
100
AcDbEntity
  8
0
100
AcDbBlockEnd
  0
BLOCK
  5
1C3
330
1C2
100
AcDbEntity
  8
0
100
AcDbBlockBegin
  2
Fill_1
 70
     0
 10
0.0
 20
0.0
 30
0.0
  3
Fill_1
  1

  0
INSERT
  5
1C4
330
1C2
100
AcDbEntity
  8
Fills_ Pattern_Pen_No__153
  6
Continuous
100
AcDbBlockReference
  2
*X16
 10
0.0
 20
0.0
 30
0.0
  0
LINE
  5
1C5
330
1C2
100
AcDbEntity
  8
Fills_ Pattern_Pen_No__2
  6
Continuous
100
AcDbLine
 10
1474.355887181149
 20
-357.1255854503157
 30
0.0
 11
1474.355887181149
 21
-302.125585450316
 31
0.0
  0
LINE
  5
1C6
330
1C2
100
AcDbEntity
  8
Fills_ Pattern_Pen_No__2
  6
Continuous
100
AcDbLine
 10
1484.35588718114
 20
-357.1255854503157
 30
0.0
 11
1474.355887181149
 21
-357.1255854503157
 31
0.0
  0
LINE
  5
1C7
330
1C2
100
AcDbEntity
  8
Fills_ Pattern_Pen_No__2
  6
Continuous
100
AcDbLine
 10
1484.35588718114
 20
-344.1420844014189
 30
0.0
 11
1484.35588718114
 21
-357.1255854503157
 31
0.0
  0
LINE
  5
1C8
330
1C2
100
AcDbEntity
  8
Fills_ Pattern_Pen_No__2
  6
Continuous
100
AcDbLine
 10
1483.355887181139
 20
-344.1420844014189
 30
0.0
 11
1484.35588718114
 21
-344.1420844014189
 31
0.0
  0
LINE
  5
1C9
330
1C2
100
AcDbEntity
  8
Fills_ Pattern_Pen_No__2
  6
Continuous
100
AcDbLine
 10
1483.355887181139
 20
-315.0585968573356
 30
0.0
 11
1483.355887181139
 21
-344.1420844014189
 31
0.0
  0
LINE
  5
1CA
330
1C2
100
AcDbEntity
  8
Fills_ Pattern_Pen_No__2
  6
Continuous
100
AcDbLine
 10
1484.35588718114
 20
-315.0585968573356
 30
0.0
 11
1483.355887181139
 21
-315.0585968573356
 31
0.0
  0
LINE
  5
1CB
330
1C2
100
AcDbEntity
  8
Fills_ Pattern_Pen_No__2
  6
Continuous
100
AcDbLine
 10
1484.35588718114
 20
-297.1255854503152
 30
0.0
 11
1484.35588718114
 21
-315.0585968573356
 31
0.0
  0
LINE
  5
1CC
330
1C2
100
AcDbEntity
  8
Fills_ Pattern_Pen_No__2
  6
Continuous
100
AcDbLine
 10
1474.355887181149
 20
-302.125585450316
 30
0.0
 11
1484.35588718114
 21
-297.1255854503152
 31
0.0
  0
ENDBLK
  5
1CD
330
1C2
100
AcDbEntity
  8
0
100
AcDbBlockEnd
  0
BLOCK
  5
1CF
330
1CE
100
AcDbEntity
  8
0
100
AcDbBlockBegin
  2
*X16
 70
     1
 10
0.0
 20
0.0
 30
0.0
  3
*X16
  1

  0
LINE
  5
1D0
330
1CE
100
AcDbEntity
  8
Fills_ Pattern_Pen_No__153
  6
Continuous
100
AcDbLine
 10
1481.158478205606
 20
-317.3172849150436
 30
0.0
 11
1481.381857011669
 21
-316.9658345888659
 31
0.0
  0
LINE
  5
1D1
330
1CE
100
AcDbEntity
  8
Fills_ Pattern_Pen_No__153
  6
Continuous
100
AcDbLine
 10
1474.692693798436
 20
-310.8515005078738
 30
0.0
 11
1474.916072604499
 21
-310.500050181696
 31
0.0
  0
LINE
  5
1D2
330
1CE
100
AcDbEntity
  8
Fills_ Pattern_Pen_No__153
  6
Continuous
100
AcDbLine
 10
1481.381857011669
 20
-316.9658345888659
 30
0.0
 11
1481.606039401778
 21
-316.6148963054984
 31
0.0
  0
LINE
  5
1D3
330
1CE
100
AcDbEntity
  8
Fills_ Pattern_Pen_No__153
  6
Continuous
100
AcDbLine
 10
1474.916072604499
 20
-310.500050181696
 30
0.0
 11
1475.140254994608
 21
-310.1491118983286
 31
0.0
  0
LINE
  5
1D4
330
1CE
100
AcDbEntity
  8
Fills_ Pattern_Pen_No__153
  6
Continuous
100
AcDbLine
 10
1481.606039401778
 20
-316.6148963054984
 30
0.0
 11
1481.831024202204
 21
-316.2644719023161
 31
0.0
  0
LINE
  5
1D5
330
1CE
100
AcDbEntity
  8
Fills_ Pattern_Pen_No__153
  6
Continuous
100
AcDbLine
 10
1475.140254994608
 20
-310.1491118983286
 30
0.0
 11
1475.365239795034
 21
-309.7986874951463
 31
0.0
  0
LINE
  5
1D6
330
1CE
100
AcDbEntity
  8
Fills_ Pattern_Pen_No__153
  6
Continuous
100
AcDbLine
 10
1481.831024202204
 20
-316.2644719023161
 30
0.0
 11
1482.056810235013
 21
-315.914563214004
 31
0.0
  0
LINE
  5
1D7
330
1CE
100
AcDbEntity
  8
Fills_ Pattern_Pen_No__153
  6
Continuous
100
AcDbLine
 10
1475.365239795034
 20
-309.7986874951463
 30
0.0
 11
1475.591025827844
 21
-309.4487788068342
 31
0.0
  0
LINE
  5
1D8
330
1CE
100
AcDbEntity
  8
Fills_ Pattern_Pen_No__153
  6
Continuous
100
AcDbLine
 10
1482.056810235013
 20
-315.914563214004
 30
0.0
 11
1482.28339631808
 21
-315.5651720725467
 31
0.0
  0
LINE
  5
1D9
330
1CE
100
AcDbEntity
  8
Fills_ Pattern_Pen_No__153
  6
Continuous
100
AcDbLine
 10
1475.591025827844
 20
-309.4487788068342
 30
0.0
 11
1475.81761191091
 21
-309.0993876653768
 31
0.0
  0
LINE
  5
1DA
330
1CE
100
AcDbEntity
  8
Fills_ Pattern_Pen_No__153
  6
Continuous
100
AcDbLine
 10
1482.28339631808
 20
-315.5651720725467
 30
0.0
 11
1482.510781265087
 21
-315.2163003072192
 31
0.0
  0
LINE
  5
1DB
330
1CE
100
AcDbEntity
  8
Fills_ Pattern_Pen_No__153
  6
Continuous
100
AcDbLine
 10
1475.81761191091
 20
-309.0993876653768
 30
0.0
 11
1476.044996857917
 21
-308.7505159000494
 31
0.0
  0
LINE
  5
1DC
330
1CE
100
AcDbEntity
  8
Fills_ Pattern_Pen_No__153
  6
Continuous
100
AcDbLine
 10
1482.510781265087
 20
-315.2163003072192
 30
0.0
 11
1482.738963885537
 21
-314.8679497445774
 31
0.0
  0
LINE
  5
1DD
330
1CE
100
AcDbEntity
  8
Fills_ Pattern_Pen_No__153
  6
Continuous
100
AcDbLine
 10
1476.044996857917
 20
-308.7505159000494
 30
0.0
 11
1476.273179478367
 21
-308.4021653374076
 31
0.0
  0
LINE
  5
1DE
330
1CE
100
AcDbEntity
  8
Fills_ Pattern_Pen_No__153
  6
Continuous
100
AcDbLine
 10
1482.738963885537
 20
-314.8679497445774
 30
0.0
 11
1482.967942984754
 21
-314.5201222084482
 31
0.0
  0
LINE
  5
1DF
330
1CE
100
AcDbEntity
  8
Fills_ Pattern_Pen_No__153
  6
Continuous
100
AcDbLine
 10
1476.273179478367
 20
-308.4021653374076
 30
0.0
 11
1476.502158577584
 21
-308.0543378012783
 31
0.0
  0
LINE
  5
1E0
330
1CE
100
AcDbEntity
  8
Fills_ Pattern_Pen_No__153
  6
Continuous
100
AcDbLine
 10
1482.668223417717
 20
-318.8270301271543
 30
0.0
 11
1483.355887181139
 21
-317.6689220478257
 31
0.0
  0
LINE
  5
1E1
330
1CE
100
AcDbEntity
  8
Fills_ Pattern_Pen_No__153
  6
Continuous
100
AcDbLine
 10
1476.202439010547
 20
-312.3612457199846
 30
0.0
 11
1477.127123515511
 21
-310.8039663445243
 31
0.0
  0
LINE
  5
1E2
330
1CE
100
AcDbEntity
  8
Fills_ Pattern_Pen_No__153
  6
Continuous
100
AcDbLine
 10
1477.127123515511
 20
-310.8039663445243
 30
0.0
 11
1478.075112204883
 21
-309.2607625563684
 31
0.0
  0
LINE
  5
1E3
330
1CE
100
AcDbEntity
  8
Fills_ Pattern_Pen_No__153
  6
Continuous
100
AcDbLine
 10
1478.075112204883
 20
-309.2607625563684
 30
0.0
 11
1479.046190864748
 21
-307.7319830682444
 31
0.0
  0
LINE
  5
1E4
330
1CE
100
AcDbEntity
  8
Fills_ Pattern_Pen_No__153
  6
Continuous
100
AcDbLine
 10
1479.046190864748
 20
-307.7319830682444
 30
0.0
 11
1480.04014006363
 21
-306.2179733334681
 31
0.0
  0
LINE
  5
1E5
330
1CE
100
AcDbEntity
  8
Fills_ Pattern_Pen_No__153
  6
Continuous
100
AcDbLine
 10
1480.04014006363
 20
-306.2179733334681
 30
0.0
 11
1481.056735202068
 21
-304.7190754678821
 31
0.0
  0
LINE
  5
1E6
330
1CE
100
AcDbEntity
  8
Fills_ Pattern_Pen_No__153
  6
Continuous
100
AcDbLine
 10
1481.056735202068
 20
-304.7190754678821
 30
0.0
 11
1482.095746563375
 21
-303.2356281725493
 31
0.0
  0
LINE
  5
1E7
330
1CE
100
AcDbEntity
  8
Fills_ Pattern_Pen_No__153
  6
Continuous
100
AcDbLine
 10
1482.095746563375
 20
-303.2356281725493
 30
0.0
 11
1483.156939365541
 21
-301.7679666572176
 31
0.0
  0
LINE
  5
1E8
330
1CE
100
AcDbEntity
  8
Fills_ Pattern_Pen_No__153
  6
Continuous
100
AcDbLine
 10
1483.156939365541
 20
-301.7679666572176
 30
0.0
 11
1484.240073814289
 21
-300.3164225645736
 31
0.0
  0
LINE
  5
1E9
330
1CE
100
AcDbEntity
  8
Fills_ Pattern_Pen_No__153
  6
Continuous
100
AcDbLine
 10
1477.431737038297
 20
-313.5905437477349
 30
0.0
 11
1479.329270888829
 21
-310.5473053798233
 31
0.0
  0
LINE
  5
1EA
330
1CE
100
AcDbEntity
  8
Fills_ Pattern_Pen_No__153
  6
Continuous
100
AcDbLine
 10
1479.329270888829
 20
-310.5473053798233
 30
0.0
 11
1481.29802280693
 21
-307.5496479005886
 31
0.0
  0
LINE
  5
1EB
330
1CE
100
AcDbEntity
  8
Fills_ Pattern_Pen_No__153
  6
Continuous
100
AcDbLine
 10
1481.29802280693
 20
-307.5496479005886
 30
0.0
 11
1483.336898412211
 21
-304.5992376335191
 31
0.0
  0
LINE
  5
1EC
330
1CE
100
AcDbEntity
  8
Fills_ Pattern_Pen_No__153
  6
Continuous
100
AcDbLine
 10
1483.336898412211
 20
-304.5992376335191
 30
0.0
 11
1484.35588718114
 21
-303.1965775782912
 31
0.0
  0
LINE
  5
1ED
330
1CE
100
AcDbEntity
  8
Fills_ Pattern_Pen_No__153
  6
Continuous
100
AcDbLine
 10
1481.088399369062
 20
-357.1255854503157
 30
0.0
 11
1481.154664485489
 21
-357.0387514649177
 31
0.0
  0
LINE
  5
1EE
330
1CE
100
AcDbEntity
  8
Fills_ Pattern_Pen_No__153
  6
Continuous
100
AcDbLine
 10
1474.355887181149
 20
-351.0093218388103
 30
0.0
 11
1474.688880078319
 21
-350.5729670577478
 31
0.0
  0
LINE
  5
1EF
330
1CE
100
AcDbEntity
  8
Fills_ Pattern_Pen_No__153
  6
Continuous
100
AcDbLine
 10
1481.154664485489
 20
-357.0387514649177
 30
0.0
 11
1483.396958241121
 21
-354.2398135964948
 31
0.0
  0
LINE
  5
1F0
330
1CE
100
AcDbEntity
  8
Fills_ Pattern_Pen_No__153
  6
Continuous
100
AcDbLine
 10
1474.688880078319
 20
-350.5729670577478
 30
0.0
 11
1476.931173833951
 21
-347.774029189325
 31
0.0
  0
LINE
  5
1F1
330
1CE
100
AcDbEntity
  8
Fills_ Pattern_Pen_No__153
  6
Continuous
100
AcDbLine
 10
1483.396958241121
 20
-354.2398135964948
 30
0.0
 11
1484.35588718114
 21
-353.0990265044959
 31
0.0
  0
LINE
  5
1F2
330
1CE
100
AcDbEntity
  8
Fills_ Pattern_Pen_No__153
  6
Continuous
100
AcDbLine
 10
1476.931173833951
 20
-347.774029189325
 30
0.0
 11
1479.238830361302
 21
-345.0287321508213
 31
0.0
  0
LINE
  5
1F3
330
1CE
100
AcDbEntity
  8
Fills_ Pattern_Pen_No__153
  6
Continuous
100
AcDbLine
 10
1479.238830361302
 20
-345.0287321508213
 30
0.0
 11
1481.610566891308
 21
-342.3386019848118
 31
0.0
  0
LINE
  5
1F4
330
1CE
100
AcDbEntity
  8
Fills_ Pattern_Pen_No__153
  6
Continuous
100
AcDbLine
 10
1474.355887181149
 20
-336.767618085854
 30
0.0
 11
1475.144782484138
 21
-335.8728175776419
 31
0.0
  0
LINE
  5
1F5
330
1CE
100
AcDbEntity
  8
Fills_ Pattern_Pen_No__153
  6
Continuous
100
AcDbLine
 10
1481.610566891308
 20
-342.3386019848118
 30
0.0
 11
1481.95342736893
 21
-341.9538593178633
 31
0.0
  0
LINE
  5
1F6
330
1CE
100
AcDbEntity
  8
Fills_ Pattern_Pen_No__153
  6
Continuous
100
AcDbLine
 10
1475.144782484138
 20
-335.8728175776419
 30
0.0
 11
1475.48764296176
 21
-335.4880749106936
 31
0.0
  0
LINE
  5
1F7
330
1CE
100
AcDbEntity
  8
Fills_ Pattern_Pen_No__153
  6
Continuous
100
AcDbLine
 10
1481.95342736893
 20
-341.9538593178633
 30
0.0
 11
1482.291281095686
 21
-341.5647127051284
 31
0.0
  0
LINE
  5
1F8
330
1CE
100
AcDbEntity
  8
Fills_ Pattern_Pen_No__153
  6
Continuous
100
AcDbLine
 10
1475.48764296176
 20
-335.4880749106936
 30
0.0
 11
1475.825496688516
 21
-335.0989282979586
 31
0.0
  0
LINE
  5
1F9
330
1CE
100
AcDbEntity
  8
Fills_ Pattern_Pen_No__153
  6
Continuous
100
AcDbLine
 10
1482.291281095686
 20
-341.5647127051284
 30
0.0
 11
1482.624071509566
 21
-341.1712272958494
 31
0.0
  0
LINE
  5
1FA
330
1CE
100
AcDbEntity
  8
Fills_ Pattern_Pen_No__153
  6
Continuous
100
AcDbLine
 10
1475.825496688516
 20
-335.0989282979586
 30
0.0
 11
1476.158287102397
 21
-334.7054428886797
 31
0.0
  0
LINE
  5
1FB
330
1CE
100
AcDbEntity
  8
Fills_ Pattern_Pen_No__153
  6
Continuous
100
AcDbLine
 10
1482.624071509566
 20
-341.1712272958494
 30
0.0
 11
1482.951742896239
 21
-340.7734689656515
 31
0.0
  0
LINE
  5
1FC
330
1CE
100
AcDbEntity
  8
Fills_ Pattern_Pen_No__153
  6
Continuous
100
AcDbLine
 10
1476.158287102397
 20
-334.7054428886797
 30
0.0
 11
1476.485958489069
 21
-334.3076845584817
 31
0.0
  0
LINE
  5
1FD
330
1CE
100
AcDbEntity
  8
Fills_ Pattern_Pen_No__153
  6
Continuous
100
AcDbLine
 10
1482.951742896239
 20
-340.7734689656515
 30
0.0
 11
1483.274240398378
 21
-340.3715043055136
 31
0.0
  0
LINE
  5
1FE
330
1CE
100
AcDbEntity
  8
Fills_ Pattern_Pen_No__153
  6
Continuous
100
AcDbLine
 10
1476.485958489069
 20
-334.3076845584817
 30
0.0
 11
1476.808455991209
 21
-333.9057198983438
 31
0.0
  0
LINE
  5
1FF
330
1CE
100
AcDbEntity
  8
Fills_ Pattern_Pen_No__153
  6
Continuous
100
AcDbLine
 10
1483.274240398378
 20
-340.3715043055136
 30
0.0
 11
1483.355887181139
 21
-340.2669967908031
 31
0.0
  0
LINE
  5
200
330
1CE
100
AcDbEntity
  8
Fills_ Pattern_Pen_No__153
  6
Continuous
100
AcDbLine
 10
1476.808455991209
 20
-333.9057198983438
 30
0.0
 11
1477.125725617678
 21
-333.4996162034505
 31
0.0
  0
LINE
  5
201
330
1CE
100
AcDbEntity
  8
Fills_ Pattern_Pen_No__153
  6
Continuous
100
AcDbLine
 10
1477.125725617678
 20
-333.4996162034505
 30
0.0
 11
1477.437714252568
 21
-333.0894414619257
 31
0.0
  0
LINE
  5
202
330
1CE
100
AcDbEntity
  8
Fills_ Pattern_Pen_No__153
  6
Continuous
100
AcDbLine
 10
1477.437714252568
 20
-333.0894414619257
 30
0.0
 11
1477.744369664092
 21
-332.6752643434498
 31
0.0
  0
LINE
  5
203
330
1CE
100
AcDbEntity
  8
Fills_ Pattern_Pen_No__153
  6
Continuous
100
AcDbLine
 10
1478.928991435532
 20
-315.087798144969
 30
0.0
 11
1480.637228117839
 21
-312.6816129296637
 31
0.0
  0
LINE
  5
204
330
1CE
100
AcDbEntity
  8
Fills_ Pattern_Pen_No__153
  6
Continuous
100
AcDbLine
 10
1480.637228117839
 20
-312.6816129296637
 30
0.0
 11
1482.346317633938
 21
-310.2760333988452
 31
0.0
  0
LINE
  5
205
330
1CE
100
AcDbEntity
  8
Fills_ Pattern_Pen_No__153
  6
Continuous
100
AcDbLine
 10
1474.355887181149
 20
-305.9562204487209
 30
0.0
 11
1475.880533226768
 21
-303.8102489916754
 31
0.0
  0
LINE
  5
206
330
1CE
100
AcDbEntity
  8
Fills_ Pattern_Pen_No__153
  6
Continuous
100
AcDbLine
 10
1482.346317633938
 20
-310.2760333988452
 30
0.0
 11
1484.056259769075
 21
-307.8710598547876
 31
0.0
  0
LINE
  5
207
330
1CE
100
AcDbEntity
  8
Fills_ Pattern_Pen_No__153
  6
Continuous
100
AcDbLine
 10
1475.880533226768
 20
-303.8102489916754
 30
0.0
 11
1477.590475361905
 21
-301.4052754476177
 31
0.0
  0
LINE
  5
208
330
1CE
100
AcDbEntity
  8
Fills_ Pattern_Pen_No__153
  6
Continuous
100
AcDbLine
 10
1484.056259769075
 20
-307.8710598547876
 30
0.0
 11
1484.35588718114
 21
-307.4499605808843
 31
0.0
  0
LINE
  5
209
330
1CE
100
AcDbEntity
  8
Fills_ Pattern_Pen_No__153
  6
Continuous
100
AcDbLine
 10
1477.590475361905
 20
-301.4052754476177
 30
0.0
 11
1478.581169496375
 21
-300.0129442927007
 31
0.0
  0
LINE
  5
20A
330
1CE
100
AcDbEntity
  8
Fills_ Pattern_Pen_No__153
  6
Continuous
100
AcDbLine
 10
1474.355887181149
 20
-355.0577832374047
 30
0.0
 11
1474.547132222554
 21
-354.7892071930247
 31
0.0
  0
LINE
  5
20B
330
1CE
100
AcDbEntity
  8
Fills_ Pattern_Pen_No__153
  6
Continuous
100
AcDbLine
 10
1474.547132222554
 20
-354.7892071930247
 30
0.0
 11
1476.259630925192
 21
-352.3860534221236
 31
0.0
  0
LINE
  5
20C
330
1CE
100
AcDbEntity
  8
Fills_ Pattern_Pen_No__153
  6
Continuous
100
AcDbLine
 10
1483.956473801781
 20
-357.1255854503157
 30
0.0
 11
1484.35588718114
 21
-356.5655078313875
 31
0.0
  0
LINE
  5
20D
330
1CE
100
AcDbEntity
  8
Fills_ Pattern_Pen_No__153
  6
Continuous
100
AcDbLine
 10
1476.259630925192
 20
-352.3860534221236
 30
0.0
 11
1477.972981386772
 21
-349.9835068463133
 31
0.0
  0
LINE
  5
20E
330
1CE
100
AcDbEntity
  8
Fills_ Pattern_Pen_No__153
  6
Continuous
100
AcDbLine
 10
1477.972981386772
 20
-349.9835068463133
 30
0.0
 11
1479.687183392005
 21
-347.5815677674884
 31
0.0
  0
LINE
  5
20F
330
1CE
100
AcDbEntity
  8
Fills_ Pattern_Pen_No__153
  6
Continuous
100
AcDbLine
 10
1479.687183392005
 20
-347.5815677674884
 30
0.0
 11
1480.598780797434
 21
-346.3068850365291
 31
0.0
  0
LINE
  5
210
330
1CE
100
AcDbEntity
  8
Fills_ Pattern_Pen_No__153
  6
Continuous
100
AcDbLine
 10
1480.598780797434
 20
-346.3068850365291
 30
0.0
 11
1481.512426780165
 21
-345.0336698495207
 31
0.0
  0
LINE
  5
211
330
1CE
100
AcDbEntity
  8
Fills_ Pattern_Pen_No__153
  6
Continuous
100
AcDbLine
 10
1474.355887181149
 20
-339.5304902339074
 30
0.0
 11
1475.046642372995
 21
-338.5678854423509
 31
0.0
  0
LINE
  5
212
330
1CE
100
AcDbEntity
  8
Fills_ Pattern_Pen_No__153
  6
Continuous
100
AcDbLine
 10
1481.512426780165
 20
-345.0336698495207
 30
0.0
 11
1482.428118977663
 21
-343.7619254987841
 31
0.0
  0
LINE
  5
213
330
1CE
100
AcDbEntity
  8
Fills_ Pattern_Pen_No__153
  6
Continuous
100
AcDbLine
 10
1475.046642372995
 20
-338.5678854423509
 30
0.0
 11
1475.962334570493
 21
-337.2961410916143
 31
0.0
  0
LINE
  5
214
330
1CE
100
AcDbEntity
  8
Fills_ Pattern_Pen_No__153
  6
Continuous
100
AcDbLine
 10
1482.428118977663
 20
-343.7619254987841
 30
0.0
 11
1483.345855022101
 21
-342.4916552728368
 31
0.0
  0
LINE
  5
215
330
1CE
100
AcDbEntity
  8
Fills_ Pattern_Pen_No__153
  6
Continuous
100
AcDbLine
 10
1475.962334570493
 20
-337.2961410916143
 30
0.0
 11
1476.880070614931
 21
-336.0258708656671
 31
0.0
  0
LINE
  5
216
330
1CE
100
AcDbEntity
  8
Fills_ Pattern_Pen_No__153
  6
Continuous
100
AcDbLine
 10
1483.345855022101
 20
-342.4916552728368
 30
0.0
 11
1483.355887181139
 21
-342.477816348675
 31
0.0
  0
LINE
  5
217
330
1CE
100
AcDbEntity
  8
Fills_ Pattern_Pen_No__153
  6
Continuous
100
AcDbLine
 10
1476.880070614931
 20
-336.0258708656671
 30
0.0
 11
1477.799848133199
 21
-334.7570780492154
 31
0.0
  0
LINE
  5
218
330
1CE
100
AcDbEntity
  8
Fills_ Pattern_Pen_No__153
  6
Continuous
100
AcDbLine
 10
1477.799848133199
 20
-334.7570780492154
 30
0.0
 11
1478.721664746905
 21
-333.4897659231449
 31
0.0
  0
LINE
  5
219
330
1CE
100
AcDbEntity
  8
Fills_ Pattern_Pen_No__153
  6
Continuous
100
AcDbLine
 10
1478.721664746905
 20
-333.4897659231449
 30
0.0
 11
1479.645518072386
 21
-332.2239377645123
 31
0.0
  0
LINE
  5
21A
330
1CE
100
AcDbEntity
  8
Fills_ Pattern_Pen_No__153
  6
Continuous
100
AcDbLine
 10
1479.645518072386
 20
-332.2239377645123
 30
0.0
 11
1480.571405720712
 21
-330.959596846537
 31
0.0
  0
LINE
  5
21B
330
1CE
100
AcDbEntity
  8
Fills_ Pattern_Pen_No__153
  6
Continuous
100
AcDbLine
 10
1480.571405720712
 20
-330.959596846537
 30
0.0
 11
1480.806252333747
 21
-330.6314484473312
 31
0.0
  0
LINE
  5
21C
330
1CE
100
AcDbEntity
  8
Fills_ Pattern_Pen_No__153
  6
Continuous
100
AcDbLine
 10
1480.806252333747
 20
-330.6314484473312
 30
0.0
 11
1481.033343800854
 21
-330.2978862055793
 31
0.0
  0
LINE
  5
21D
330
1CE
100
AcDbEntity
  8
Fills_ Pattern_Pen_No__153
  6
Continuous
100
AcDbLine
 10
1474.355887181149
 20
-324.1430155400373
 30
0.0
 11
1474.567559393684
 21
-323.8321017984095
 31
0.0
  0
LINE
  5
21E
330
1CE
100
AcDbEntity
  8
Fills_ Pattern_Pen_No__153
  6
Continuous
100
AcDbLine
 10
1481.033343800854
 20
-330.2978862055793
 30
0.0
 11
1481.252555370793
 21
-329.9590933615576
 31
0.0
  0
LINE
  5
21F
330
1CE
100
AcDbEntity
  8
Fills_ Pattern_Pen_No__153
  6
Continuous
100
AcDbLine
 10
1474.567559393684
 20
-323.8321017984095
 30
0.0
 11
1474.786770963623
 21
-323.4933089543878
 31
0.0
  0
LINE
  5
220
330
1CE
100
AcDbEntity
  8
Fills_ Pattern_Pen_No__153
  6
Continuous
100
AcDbLine
 10
1481.252555370793
 20
-329.9590933615576
 30
0.0
 11
1481.463766621095
 21
-329.6152560289405
 31
0.0
  0
LINE
  5
221
330
1CE
100
AcDbEntity
  8
Fills_ Pattern_Pen_No__153
  6
Continuous
100
AcDbLine
 10
1474.786770963623
 20
-323.4933089543878
 30
0.0
 11
1474.997982213926
 21
-323.1494716217707
 31
0.0
  0
LINE
  5
222
330
1CE
100
AcDbEntity
  8
Fills_ Pattern_Pen_No__153
  6
Continuous
100
AcDbLine
 10
1481.463766621095
 20
-329.6152560289405
 30
0.0
 11
1481.666861524216
 21
-329.2665630925597
 31
0.0
  0
LINE
  5
223
330
1CE
100
AcDbEntity
  8
Fills_ Pattern_Pen_No__153
  6
Continuous
100
AcDbLine
 10
1474.997982213926
 20
-323.1494716217707
 30
0.0
 11
1475.201077117046
 21
-322.8007786853898
 31
0.0
  0
LINE
  5
224
330
1CE
100
AcDbEntity
  8
Fills_ Pattern_Pen_No__153
  6
Continuous
100
AcDbLine
 10
1481.666861524216
 20
-329.2665630925597
 30
0.0
 11
1481.861728511274
 21
-328.9132061046416
 31
0.0
  0
LINE
  5
225
330
1CE
100
AcDbEntity
  8
Fills_ Pattern_Pen_No__153
  6
Continuous
100
AcDbLine
 10
1475.201077117046
 20
-322.8007786853898
 30
0.0
 11
1475.395944104104
 21
-322.4474216974718
 31
0.0
  0
LINE
  5
226
330
1CE
100
AcDbEntity
  8
Fills_ Pattern_Pen_No__153
  6
Continuous
100
AcDbLine
 10
1481.861728511274
 20
-328.9132061046416
 30
0.0
 11
1482.04826053334
 21
-328.5553791795795
 31
0.0
  0
LINE
  5
227
330
1CE
100
AcDbEntity
  8
Fills_ Pattern_Pen_No__153
  6
Continuous
100
AcDbLine
 10
1475.395944104104
 20
-322.4474216974718
 30
0.0
 11
1475.58247612617
 21
-322.0895947724097
 31
0.0
  0
LINE
  5
228
330
1CE
100
AcDbEntity
  8
Fills_ Pattern_Pen_No__153
  6
Continuous
100
AcDbLine
 10
1482.04826053334
 20
-328.5553791795795
 30
0.0
 11
1482.226355120244
 21
-328.1932788872976
 31
0.0
  0
LINE
  5
229
330
1CE
100
AcDbEntity
  8
Fills_ Pattern_Pen_No__153
  6
Continuous
100
AcDbLine
 10
1475.58247612617
 20
-322.0895947724097
 30
0.0
 11
1475.760570713075
 21
-321.7274944801277
 31
0.0
  0
LINE
  5
22A
330
1CE
100
AcDbEntity
  8
Fills_ Pattern_Pen_No__153
  6
Continuous
100
AcDbLine
 10
1480.229146026736
 20
-316.3879527361729
 30
0.0
 11
1481.784709262569
 21
-313.985876140347
 31
0.0
  0
LINE
  5
22B
330
1CE
100
AcDbEntity
  8
Fills_ Pattern_Pen_No__153
  6
Continuous
100
AcDbLine
 10
1474.355887181149
 20
-309.0071995568436
 30
0.0
 11
1475.3189248554
 21
-307.5200917331772
 31
0.0
  0
LINE
  5
22C
330
1CE
100
AcDbEntity
  8
Fills_ Pattern_Pen_No__153
  6
Continuous
100
AcDbLine
 10
1481.784709262569
 20
-313.985876140347
 30
0.0
 11
1483.365574611251
 21
-311.6003754167607
 31
0.0
  0
LINE
  5
22D
330
1CE
100
AcDbEntity
  8
Fills_ Pattern_Pen_No__153
  6
Continuous
100
AcDbLine
 10
1475.3189248554
 20
-307.5200917331772
 30
0.0
 11
1476.899790204081
 21
-305.134591009591
 31
0.0
  0
LINE
  5
22E
330
1CE
100
AcDbEntity
  8
Fills_ Pattern_Pen_No__153
  6
Continuous
100
AcDbLine
 10
1483.365574611251
 20
-311.6003754167607
 30
0.0
 11
1484.35588718114
 21
-310.1397742339607
 31
0.0
  0
LINE
  5
22F
330
1CE
100
AcDbEntity
  8
Fills_ Pattern_Pen_No__153
  6
Continuous
100
AcDbLine
 10
1476.899790204081
 20
-305.134591009591
 30
0.0
 11
1478.505781051777
 21
-302.7659326657161
 31
0.0
  0
LINE
  5
230
330
1CE
100
AcDbEntity
  8
Fills_ Pattern_Pen_No__153
  6
Continuous
100
AcDbLine
 10
1478.505781051777
 20
-302.7659326657161
 30
0.0
 11
1480.136717977641
 21
-300.4143813273981
 31
0.0
  0
LINE
  5
231
330
1CE
100
AcDbEntity
  8
Fills_ Pattern_Pen_No__153
  6
Continuous
100
AcDbLine
 10
1474.721346134905
 20
-357.1255854503157
 30
0.0
 11
1475.326634366688
 21
-356.272259373821
 31
0.0
  0
LINE
  5
232
330
1CE
100
AcDbEntity
  8
Fills_ Pattern_Pen_No__153
  6
Continuous
100
AcDbLine
 10
1480.136717977641
 20
-300.4143813273981
 30
0.0
 11
1481.43286123057
 21
-298.5870984256018
 31
0.0
  0
LINE
  5
233
330
1CE
100
AcDbEntity
  8
Fills_ Pattern_Pen_No__153
  6
Continuous
100
AcDbLine
 10
1475.326634366688
 20
-356.272259373821
 30
0.0
 11
1477.006914058828
 21
-353.9557082500436
 31
0.0
  0
LINE
  5
234
330
1CE
100
AcDbEntity
  8
Fills_ Pattern_Pen_No__153
  6
Continuous
100
AcDbLine
 10
1477.006914058828
 20
-353.9557082500436
 30
0.0
 11
1478.711584926516
 21
-351.6570464250358
 31
0.0
  0
LINE
  5
235
330
1CE
100
AcDbEntity
  8
Fills_ Pattern_Pen_No__153
  6
Continuous
100
AcDbLine
 10
1478.711584926516
 20
-351.6570464250358
 30
0.0
 11
1480.4404565244
 21
-349.3765307046512
 31
0.0
  0
LINE
  5
236
330
1CE
100
AcDbEntity
  8
Fills_ Pattern_Pen_No__153
  6
Continuous
100
AcDbLine
 10
1480.4404565244
 20
-349.3765307046512
 30
0.0
 11
1481.778805529824
 21
-347.126028254266
 31
0.0
  0
LINE
  5
237
330
1CE
100
AcDbEntity
  8
Fills_ Pattern_Pen_No__153
  6
Continuous
100
AcDbLine
 10
1474.355887181149
 20
-342.2697136281288
 30
0.0
 11
1475.313021122654
 21
-340.6602438470961
 31
0.0
  0
LINE
  5
238
330
1CE
100
AcDbEntity
  8
Fills_ Pattern_Pen_No__153
  6
Continuous
100
AcDbLine
 10
1481.778805529824
 20
-347.126028254266
 30
0.0
 11
1483.135638707648
 21
-344.8866213981841
 31
0.0
  0
LINE
  5
239
330
1CE
100
AcDbEntity
  8
Fills_ Pattern_Pen_No__153
  6
Continuous
100
AcDbLine
 10
1475.313021122654
 20
-340.6602438470961
 30
0.0
 11
1476.669854300478
 21
-338.4208369910143
 31
0.0
  0
LINE
  5
23A
330
1CE
100
AcDbEntity
  8
Fills_ Pattern_Pen_No__153
  6
Continuous
100
AcDbLine
 10
1483.135638707648
 20
-344.8866213981841
 30
0.0
 11
1483.595168731931
 21
-344.1420844014189
 31
0.0
  0
LINE
  5
23B
330
1CE
100
AcDbEntity
  8
Fills_ Pattern_Pen_No__153
  6
Continuous
100
AcDbLine
 10
1476.669854300478
 20
-338.4208369910143
 30
0.0
 11
1478.045079668463
 21
-336.1926775427796
 31
0.0
  0
LINE
  5
23C
330
1CE
100
AcDbEntity
  8
Fills_ Pattern_Pen_No__153
  6
Continuous
100
AcDbLine
 10
1478.045079668463
 20
-336.1926775427796
 30
0.0
 11
1479.438603997533
 21
-333.9759165534533
 31
0.0
  0
LINE
  5
23D
330
1CE
100
AcDbEntity
  8
Fills_ Pattern_Pen_No__153
  6
Continuous
100
AcDbLine
 10
1479.438603997533
 20
-333.9759165534533
 30
0.0
 11
1480.850332818089
 21
-331.7707043013736
 31
0.0
  0
LINE
  5
23E
330
1CE
100
AcDbEntity
  8
Fills_ Pattern_Pen_No__153
  6
Continuous
100
AcDbLine
 10
1474.355887181149
 20
-325.3496905995462
 30
0.0
 11
1474.384548410919
 21
-325.3049198942039
 31
0.0
  0
LINE
  5
23F
330
1CE
100
AcDbEntity
  8
Fills_ Pattern_Pen_No__153
  6
Continuous
100
AcDbLine
 10
1480.850332818089
 20
-331.7707043013736
 30
0.0
 11
1482.280170426415
 21
-329.577190281969
 31
0.0
  0
LINE
  5
240
330
1CE
100
AcDbEntity
  8
Fills_ Pattern_Pen_No__153
  6
Continuous
100
AcDbLine
 10
1474.384548410919
 20
-325.3049198942039
 30
0.0
 11
1475.814386019245
 21
-323.1114058747992
 31
0.0
  0
LINE
  5
241
330
1CE
100
AcDbEntity
  8
Fills_ Pattern_Pen_No__153
  6
Continuous
100
AcDbLine
 10
1482.280170426415
 20
-329.577190281969
 30
0.0
 11
1483.355887181139
 21
-327.956264976546
 31
0.0
  0
LINE
  5
242
330
1CE
100
AcDbEntity
  8
Fills_ Pattern_Pen_No__153
  6
Continuous
100
AcDbLine
 10
1475.814386019245
 20
-323.1114058747992
 30
0.0
 11
1477.262235483999
 21
-320.9297387904528
 31
0.0
  0
LINE
  5
243
330
1CE
100
AcDbEntity
  8
Fills_ Pattern_Pen_No__153
  6
Continuous
100
AcDbLine
 10
1477.262235483999
 20
-320.9297387904528
 30
0.0
 11
1478.72799865278
 21
-318.7600665404221
 31
0.0
  0
LINE
  5
244
330
1CE
100
AcDbEntity
  8
Fills_ Pattern_Pen_No__153
  6
Continuous
100
AcDbLine
 10
1482.967942984754
 20
-314.5201222084481
 30
0.0
 11
1484.347171945157
 21
-312.4608720651773
 31
0.0
  0
LINE
  5
245
330
1CE
100
AcDbEntity
  8
Fills_ Pattern_Pen_No__153
  6
Continuous
100
AcDbLine
 10
1476.502158577584
 20
-308.0543378012783
 30
0.0
 11
1477.881387537987
 21
-305.9950876580075
 31
0.0
  0
LINE
  5
246
330
1CE
100
AcDbEntity
  8
Fills_ Pattern_Pen_No__153
  6
Continuous
100
AcDbLine
 10
1477.881387537987
 20
-305.9950876580075
 30
0.0
 11
1479.288531402294
 21
-303.954810759418
 31
0.0
  0
LINE
  5
247
330
1CE
100
AcDbEntity
  8
Fills_ Pattern_Pen_No__153
  6
Continuous
100
AcDbLine
 10
1479.288531402294
 20
-303.954810759418
 30
0.0
 11
1480.723329204991
 21
-301.9338854903521
 31
0.0
  0
LINE
  5
248
330
1CE
100
AcDbEntity
  8
Fills_ Pattern_Pen_No__153
  6
Continuous
100
AcDbLine
 10
1480.723329204991
 20
-301.9338854903521
 30
0.0
 11
1482.185514851932
 21
-299.9326866467452
 31
0.0
  0
LINE
  5
249
330
1CE
100
AcDbEntity
  8
Fills_ Pattern_Pen_No__153
  6
Continuous
100
AcDbLine
 10
1476.470854377993
 20
-357.1255854503157
 30
0.0
 11
1477.209032762517
 21
-356.1436450306461
 31
0.0
  0
LINE
  5
24A
330
1CE
100
AcDbEntity
  8
Fills_ Pattern_Pen_No__153
  6
Continuous
100
AcDbLine
 10
1482.185514851932
 20
-299.9326866467452
 30
0.0
 11
1483.674817169687
 21
-297.9515853661177
 31
0.0
  0
LINE
  5
24B
330
1CE
100
AcDbEntity
  8
Fills_ Pattern_Pen_No__153
  6
Continuous
100
AcDbLine
 10
1477.209032762517
 20
-356.1436450306461
 30
0.0
 11
1478.725175548662
 21
-354.1830087232722
 31
0.0
  0
LINE
  5
24C
330
1CE
100
AcDbEntity
  8
Fills_ Pattern_Pen_No__153
  6
Continuous
100
AcDbLine
 10
1483.674817169687
 20
-297.9515853661177
 30
0.0
 11
1484.286870716722
 21
-297.1600936825243
 31
0.0
  0
LINE
  5
24D
330
1CE
100
AcDbEntity
  8
Fills_ Pattern_Pen_No__153
  6
Continuous
100
AcDbLine
 10
1478.725175548662
 20
-354.1830087232722
 30
0.0
 11
1480.267877623008
 21
-352.243201004042
 31
0.0
  0
LINE
  5
24E
330
1CE
100
AcDbEntity
  8
Fills_ Pattern_Pen_No__153
  6
Continuous
100
AcDbLine
 10
1480.267877623008
 20
-352.243201004042
 30
0.0
 11
1481.836852879739
 21
-350.3245816250255
 31
0.0
  0
LINE
  5
24F
330
1CE
100
AcDbEntity
  8
Fills_ Pattern_Pen_No__153
  6
Continuous
100
AcDbLine
 10
1474.355887181149
 20
-345.10021035715
 30
0.0
 11
1475.371068472569
 21
-343.8587972178557
 31
0.0
  0
LINE
  5
250
330
1CE
100
AcDbEntity
  8
Fills_ Pattern_Pen_No__153
  6
Continuous
100
AcDbLine
 10
1481.836852879739
 20
-350.3245816250255
 30
0.0
 11
1482.368152774323
 21
-349.7206040575671
 31
0.0
  0
LINE
  5
251
330
1CE
100
AcDbEntity
  8
Fills_ Pattern_Pen_No__153
  6
Continuous
100
AcDbLine
 10
1475.371068472569
 20
-343.8587972178557
 30
0.0
 11
1475.902368367153
 21
-343.2548196503973
 31
0.0
  0
LINE
  5
252
330
1CE
100
AcDbEntity
  8
Fills_ Pattern_Pen_No__153
  6
Continuous
100
AcDbLine
 10
1482.368152774323
 20
-349.7206040575671
 30
0.0
 11
1482.864292019333
 21
-349.0874260971656
 31
0.0
  0
LINE
  5
253
330
1CE
100
AcDbEntity
  8
Fills_ Pattern_Pen_No__153
  6
Continuous
100
AcDbLine
 10
1475.902368367153
 20
-343.2548196503973
 30
0.0
 11
1476.398507612163
 21
-342.6216416899958
 31
0.0
  0
LINE
  5
254
330
1CE
100
AcDbEntity
  8
Fills_ Pattern_Pen_No__153
  6
Continuous
100
AcDbLine
 10
1482.864292019333
 20
-349.0874260971656
 30
0.0
 11
1483.323668926105
 21
-348.4270918352176
 31
0.0
  0
LINE
  5
255
330
1CE
100
AcDbEntity
  8
Fills_ Pattern_Pen_No__153
  6
Continuous
100
AcDbLine
 10
1476.398507612163
 20
-342.6216416899958
 30
0.0
 11
1476.857884518935
 21
-341.9613074280478
 31
0.0
  0
LINE
  5
256
330
1CE
100
AcDbEntity
  8
Fills_ Pattern_Pen_No__153
  6
Continuous
100
AcDbLine
 10
1483.323668926105
 20
-348.4270918352176
 30
0.0
 11
1483.744800486002
 21
-347.7417330319361
 31
0.0
  0
LINE
  5
257
330
1CE
100
AcDbEntity
  8
Fills_ Pattern_Pen_No__153
  6
Continuous
100
AcDbLine
 10
1476.857884518935
 20
-341.9613074280478
 30
0.0
 11
1477.279016078833
 21
-341.2759486247662
 31
0.0
  0
LINE
  5
258
330
1CE
100
AcDbEntity
  8
Fills_ Pattern_Pen_No__153
  6
Continuous
100
AcDbLine
 10
1483.744800486002
 20
-347.7417330319361
 30
0.0
 11
1484.126327158025
 21
-347.0335622343788
 31
0.0
  0
LINE
  5
259
330
1CE
100
AcDbEntity
  8
Fills_ Pattern_Pen_No__153
  6
Continuous
100
AcDbLine
 10
1477.279016078833
 20
-341.2759486247662
 30
0.0
 11
1477.660542750855
 21
-340.5677778272089
 31
0.0
  0
LINE
  5
25A
330
1CE
100
AcDbEntity
  8
Fills_ Pattern_Pen_No__153
  6
Continuous
100
AcDbLine
 10
1484.126327158025
 20
-347.0335622343788
 30
0.0
 11
1484.35588718114
 21
-346.5425599757161
 31
0.0
  0
LINE
  5
25B
330
1CE
100
AcDbEntity
  8
Fills_ Pattern_Pen_No__153
  6
Continuous
100
AcDbLine
 10
1477.660542750855
 20
-340.5677778272089
 30
0.0
 11
1478.001232850647
 21
-339.8390812265024
 31
0.0
  0
LINE
  5
25C
330
1CE
100
AcDbEntity
  8
Fills_ Pattern_Pen_No__153
  6
Continuous
100
AcDbLine
 10
1478.001232850647
 20
-339.8390812265024
 30
0.0
 11
1478.299986526752
 21
-339.0922112773204
 31
0.0
  0
LINE
  5
25D
330
1CE
100
AcDbEntity
  8
Fills_ Pattern_Pen_No__153
  6
Continuous
100
AcDbLine
 10
1478.299986526752
 20
-339.0922112773204
 30
0.0
 11
1478.555839311269
 21
-338.3295791034431
 31
0.0
  0
LINE
  5
25E
330
1CE
100
AcDbEntity
  8
Fills_ Pattern_Pen_No__153
  6
Continuous
100
AcDbLine
 10
1478.555839311269
 20
-338.3295791034431
 30
0.0
 11
1479.613462345464
 21
-336.4651696825303
 31
0.0
  0
LINE
  5
25F
330
1CE
100
AcDbEntity
  8
Fills_ Pattern_Pen_No__153
  6
Continuous
100
AcDbLine
 10
1479.613462345464
 20
-336.4651696825303
 30
0.0
 11
1480.693090072566
 21
-334.6134156648156
 31
0.0
  0
LINE
  5
260
330
1CE
100
AcDbEntity
  8
Fills_ Pattern_Pen_No__153
  6
Continuous
100
AcDbLine
 10
1480.693090072566
 20
-334.6134156648156
 30
0.0
 11
1481.794571080745
 21
-332.7745767485778
 31
0.0
  0
LINE
  5
261
330
1CE
100
AcDbEntity
  8
Fills_ Pattern_Pen_No__153
  6
Continuous
100
AcDbLine
 10
1474.355887181149
 20
-327.9329741792942
 30
0.0
 11
1475.328786673575
 21
-326.308792341408
 31
0.0
  0
LINE
  5
262
330
1CE
100
AcDbEntity
  8
Fills_ Pattern_Pen_No__153
  6
Continuous
100
AcDbLine
 10
1481.794571080745
 20
-332.7745767485778
 30
0.0
 11
1482.917750893369
 21
-330.948910820824
 31
0.0
  0
LINE
  5
263
330
1CE
100
AcDbEntity
  8
Fills_ Pattern_Pen_No__153
  6
Continuous
100
AcDbLine
 10
1475.328786673575
 20
-326.308792341408
 30
0.0
 11
1476.451966486199
 21
-324.4831264136542
 31
0.0
  0
LINE
  5
264
330
1CE
100
AcDbEntity
  8
Fills_ Pattern_Pen_No__153
  6
Continuous
100
AcDbLine
 10
1482.917750893369
 20
-330.948910820824
 30
0.0
 11
1483.355887181139
 21
-330.2552861906266
 31
0.0
  0
LINE
  5
265
330
1CE
100
AcDbEntity
  8
Fills_ Pattern_Pen_No__153
  6
Continuous
100
AcDbLine
 10
1476.451966486199
 20
-324.4831264136542
 30
0.0
 11
1477.596687583502
 21
-322.6708895139526
 31
0.0
  0
LINE
  5
266
330
1CE
100
AcDbEntity
  8
Fills_ Pattern_Pen_No__153
  6
Continuous
100
AcDbLine
 10
1477.596687583502
 20
-322.6708895139526
 30
0.0
 11
1478.762789424667
 21
-320.8723357985246
 31
0.0
  0
LINE
  5
267
330
1CE
100
AcDbEntity
  8
Fills_ Pattern_Pen_No__153
  6
Continuous
100
AcDbLine
 10
1478.762789424667
 20
-320.8723357985246
 30
0.0
 11
1479.950108470349
 21
-319.0877175046002
 31
0.0
  0
LINE
  5
268
330
1CE
100
AcDbEntity
  8
Fills_ Pattern_Pen_No__153
  6
Continuous
100
AcDbLine
 10
1479.950108470349
 20
-319.0877175046002
 30
0.0
 11
1481.158478205606
 21
-317.3172849150437
 31
0.0
  0
LINE
  5
269
330
1CE
100
AcDbEntity
  8
Fills_ Pattern_Pen_No__153
  6
Continuous
100
AcDbLine
 10
1474.355887181149
 20
-311.3449698444733
 30
0.0
 11
1474.692693798436
 21
-310.8515005078739
 31
0.0
  0
LINE
  5
26A
330
1CE
100
AcDbEntity
  8
Fills_ Pattern_Pen_No__153
  6
Continuous
100
AcDbLine
 10
1484.240073814289
 20
-300.3164225645735
 30
0.0
 11
1484.35588718114
 21
-300.1650517314144
 31
0.0
  0
LINE
  5
26B
330
1CE
100
AcDbEntity
  8
Fills_ Pattern_Pen_No__153
  6
Continuous
100
AcDbLine
 10
1478.839817952323
 20
-357.1255854503157
 30
0.0
 11
1479.104535133137
 21
-356.7859937205375
 31
0.0
  0
LINE
  5
26C
330
1CE
100
AcDbEntity
  8
Fills_ Pattern_Pen_No__153
  6
Continuous
100
AcDbLine
 10
1479.104535133137
 20
-356.7859937205375
 30
0.0
 11
1479.781271541065
 21
-355.9338305483723
 31
0.0
  0
LINE
  5
26D
330
1CE
100
AcDbEntity
  8
Fills_ Pattern_Pen_No__153
  6
Continuous
100
AcDbLine
 10
1479.781271541065
 20
-355.9338305483723
 30
0.0
 11
1480.465676915839
 21
-355.0878142832857
 31
0.0
  0
LINE
  5
26E
330
1CE
100
AcDbEntity
  8
Fills_ Pattern_Pen_No__153
  6
Continuous
100
AcDbLine
 10
1480.465676915839
 20
-355.0878142832857
 30
0.0
 11
1481.157695427011
 21
-354.2480139391524
 31
0.0
  0
LINE
  5
26F
330
1CE
100
AcDbEntity
  8
Fills_ Pattern_Pen_No__153
  6
Continuous
100
AcDbLine
 10
1474.355887181149
 20
-348.1900118829098
 30
0.0
 11
1474.691911019841
 21
-347.7822295319827
 31
0.0
  0
LINE
  5
270
330
1CE
100
AcDbEntity
  8
Fills_ Pattern_Pen_No__153
  6
Continuous
100
AcDbLine
 10
1481.157695427011
 20
-354.2480139391524
 30
0.0
 11
1481.85727062309
 21
-353.4144980227829
 31
0.0
  0
LINE
  5
271
330
1CE
100
AcDbEntity
  8
Fills_ Pattern_Pen_No__153
  6
Continuous
100
AcDbLine
 10
1474.691911019841
 20
-347.7822295319827
 30
0.0
 11
1475.391486215921
 21
-346.9487136156132
 31
0.0
  0
LINE
  5
272
330
1CE
100
AcDbEntity
  8
Fills_ Pattern_Pen_No__153
  6
Continuous
100
AcDbLine
 10
1481.85727062309
 20
-353.4144980227829
 30
0.0
 11
1482.56434543615
 21
-352.5873345283346
 31
0.0
  0
LINE
  5
273
330
1CE
100
AcDbEntity
  8
Fills_ Pattern_Pen_No__153
  6
Continuous
100
AcDbLine
 10
1475.391486215921
 20
-346.9487136156132
 30
0.0
 11
1476.09856102898
 21
-346.1215501211648
 31
0.0
  0
LINE
  5
274
330
1CE
100
AcDbEntity
  8
Fills_ Pattern_Pen_No__153
  6
Continuous
100
AcDbLine
 10
1482.56434543615
 20
-352.5873345283346
 30
0.0
 11
1483.278862186479
 21
-351.7665909317655
 31
0.0
  0
LINE
  5
275
330
1CE
100
AcDbEntity
  8
Fills_ Pattern_Pen_No__153
  6
Continuous
100
AcDbLine
 10
1476.09856102898
 20
-346.1215501211648
 30
0.0
 11
1476.81307777931
 21
-345.3008065245957
 31
0.0
  0
LINE
  5
276
330
1CE
100
AcDbEntity
  8
Fills_ Pattern_Pen_No__153
  6
Continuous
100
AcDbLine
 10
1483.278862186479
 20
-351.7665909317655
 30
0.0
 11
1484.35588718114
 21
-350.7004970552142
 31
0.0
  0
LINE
  5
277
330
1CE
100
AcDbEntity
  8
Fills_ Pattern_Pen_No__153
  6
Continuous
100
AcDbLine
 10
1476.81307777931
 20
-345.3008065245957
 30
0.0
 11
1477.995299553507
 21
-344.1305835488557
 31
0.0
  0
LINE
  5
278
330
1CE
100
AcDbEntity
  8
Fills_ Pattern_Pen_No__153
  6
Continuous
100
AcDbLine
 10
1477.995299553507
 20
-344.1305835488557
 30
0.0
 11
1479.09896705906
 21
-342.8860000146865
 31
0.0
  0
LINE
  5
279
330
1CE
100
AcDbEntity
  8
Fills_ Pattern_Pen_No__153
  6
Continuous
100
AcDbLine
 10
1479.09896705906
 20
-342.8860000146865
 30
0.0
 11
1480.119413553708
 21
-341.5723185129905
 31
0.0
  0
LINE
  5
27A
330
1CE
100
AcDbEntity
  8
Fills_ Pattern_Pen_No__153
  6
Continuous
100
AcDbLine
 10
1480.119413553708
 20
-341.5723185129905
 30
0.0
 11
1481.052324186505
 21
-340.1950938081764
 31
0.0
  0
LINE
  5
27B
330
1CE
100
AcDbEntity
  8
Fills_ Pattern_Pen_No__153
  6
Continuous
100
AcDbLine
 10
1474.355887181149
 20
-334.0698141024049
 30
0.0
 11
1474.586539779336
 21
-333.7293094010066
 31
0.0
  0
LINE
  5
27C
330
1CE
100
AcDbEntity
  8
Fills_ Pattern_Pen_No__153
  6
Continuous
100
AcDbLine
 10
1481.052324186505
 20
-340.1950938081764
 30
0.0
 11
1481.893754242716
 21
-338.760149350421
 31
0.0
  0
LINE
  5
27D
330
1CE
100
AcDbEntity
  8
Fills_ Pattern_Pen_No__153
  6
Continuous
100
AcDbLine
 10
1474.586539779336
 20
-333.7293094010066
 30
0.0
 11
1475.427969835546
 21
-332.2943649432512
 31
0.0
  0
LINE
  5
27E
330
1CE
100
AcDbEntity
  8
Fills_ Pattern_Pen_No__153
  6
Continuous
100
AcDbLine
 10
1481.893754242716
 20
-338.760149350421
 30
0.0
 11
1482.640145823623
 21
-337.273552651821
 31
0.0
  0
LINE
  5
27F
330
1CE
100
AcDbEntity
  8
Fills_ Pattern_Pen_No__153
  6
Continuous
100
AcDbLine
 10
1475.427969835546
 20
-332.2943649432512
 30
0.0
 11
1476.174361416453
 21
-330.8077682446511
 31
0.0
  0
LINE
  5
280
330
1CE
100
AcDbEntity
  8
Fills_ Pattern_Pen_No__153
  6
Continuous
100
AcDbLine
 10
1482.640145823623
 20
-337.273552651821
 30
0.0
 11
1483.288342890731
 21
-335.7415896305542
 31
0.0
  0
LINE
  5
281
330
1CE
100
AcDbEntity
  8
Fills_ Pattern_Pen_No__153
  6
Continuous
100
AcDbLine
 10
1476.174361416453
 20
-330.8077682446511
 30
0.0
 11
1476.822558483562
 21
-329.2758052233843
 31
0.0
  0
LINE
  5
282
330
1CE
100
AcDbEntity
  8
Fills_ Pattern_Pen_No__153
  6
Continuous
100
AcDbLine
 10
1483.288342890731
 20
-335.7415896305542
 30
0.0
 11
1483.355887181139
 21
-335.5477115413124
 31
0.0
  0
LINE
  5
283
330
1CE
100
AcDbEntity
  8
Fills_ Pattern_Pen_No__153
  6
Continuous
100
AcDbLine
 10
1476.822558483562
 20
-329.2758052233843
 30
0.0
 11
1477.369820203578
 21
-327.7049536243648
 31
0.0
  0
LINE
  5
284
330
1CE
100
AcDbEntity
  8
Fills_ Pattern_Pen_No__153
  6
Continuous
100
AcDbLine
 10
1477.369820203578
 20
-327.7049536243648
 30
0.0
 11
1477.463060361198
 21
-327.4238464283913
 31
0.0
  0
LINE
  5
285
330
1CE
100
AcDbEntity
  8
Fills_ Pattern_Pen_No__153
  6
Continuous
100
AcDbLine
 10
1477.463060361198
 20
-327.4238464283913
 30
0.0
 11
1477.566109598457
 21
-327.1461850567146
 31
0.0
  0
LINE
  5
286
330
1CE
100
AcDbEntity
  8
Fills_ Pattern_Pen_No__153
  6
Continuous
100
AcDbLine
 10
1477.566109598457
 20
-327.1461850567146
 30
0.0
 11
1477.678840927104
 21
-326.872311673264
 31
0.0
  0
LINE
  5
287
330
1CE
100
AcDbEntity
  8
Fills_ Pattern_Pen_No__153
  6
Continuous
100
AcDbLine
 10
1477.678840927104
 20
-326.872311673264
 30
0.0
 11
1477.801115427583
 21
-326.6025637740067
 31
0.0
  0
LINE
  5
288
330
1CE
100
AcDbEntity
  8
Fills_ Pattern_Pen_No__153
  6
Continuous
100
AcDbLine
 10
1477.801115427583
 20
-326.6025637740067
 30
0.0
 11
1477.932782420224
 21
-326.3372737710481
 31
0.0
  0
LINE
  5
289
330
1CE
100
AcDbEntity
  8
Fills_ Pattern_Pen_No__153
  6
Continuous
100
AcDbLine
 10
1477.932782420224
 20
-326.3372737710481
 30
0.0
 11
1478.073679650931
 21
-326.0767685829993
 31
0.0
  0
LINE
  5
28A
330
1CE
100
AcDbEntity
  8
Fills_ Pattern_Pen_No__153
  6
Continuous
100
AcDbLine
 10
1478.073679650931
 20
-326.0767685829993
 30
0.0
 11
1478.22363349112
 21
-325.821369232112
 31
0.0
  0
LINE
  5
28B
330
1CE
100
AcDbEntity
  8
Fills_ Pattern_Pen_No__153
  6
Continuous
100
AcDbLine
 10
1478.22363349112
 20
-325.821369232112
 30
0.0
 11
1478.38245915169
 21
-325.5713904486816
 31
0.0
  0
LINE
  5
28C
330
1CE
100
AcDbEntity
  8
Fills_ Pattern_Pen_No__153
  6
Continuous
100
AcDbLine
 10
1478.38245915169
 20
-325.5713904486816
 30
0.0
 11
1478.897214876141
 21
-324.715230376079
 31
0.0
  0
LINE
  5
28D
330
1CE
100
AcDbEntity
  8
Fills_ Pattern_Pen_No__153
  6
Continuous
100
AcDbLine
 10
1478.897214876141
 20
-324.715230376079
 30
0.0
 11
1479.418013405869
 21
-323.8627326240545
 31
0.0
  0
LINE
  5
28E
330
1CE
100
AcDbEntity
  8
Fills_ Pattern_Pen_No__153
  6
Continuous
100
AcDbLine
 10
1479.418013405869
 20
-323.8627326240545
 30
0.0
 11
1479.944828685861
 21
-323.0139398421925
 31
0.0
  0
LINE
  5
28F
330
1CE
100
AcDbEntity
  8
Fills_ Pattern_Pen_No__153
  6
Continuous
100
AcDbLine
 10
1479.944828685861
 20
-323.0139398421925
 30
0.0
 11
1480.47763436009
 21
-322.1688944947214
 31
0.0
  0
LINE
  5
290
330
1CE
100
AcDbEntity
  8
Fills_ Pattern_Pen_No__153
  6
Continuous
100
AcDbLine
 10
1480.47763436009
 20
-322.1688944947214
 30
0.0
 11
1481.016403772838
 21
-321.3276388583893
 31
0.0
  0
LINE
  5
291
330
1CE
100
AcDbEntity
  8
Fills_ Pattern_Pen_No__153
  6
Continuous
100
AcDbLine
 10
1474.355887181149
 20
-315.1659169015484
 30
0.0
 11
1474.550619365668
 21
-314.8618544512195
 31
0.0
  0
LINE
  5
292
330
1CE
100
AcDbEntity
  8
Fills_ Pattern_Pen_No__153
  6
Continuous
100
AcDbLine
 10
1481.016403772838
 20
-321.3276388583893
 30
0.0
 11
1481.561109970027
 21
-320.490215020349
 31
0.0
  0
LINE
  5
293
330
1CE
100
AcDbEntity
  8
Fills_ Pattern_Pen_No__153
  6
Continuous
100
AcDbLine
 10
1474.550619365668
 20
-314.8618544512195
 30
0.0
 11
1475.095325562857
 21
-314.0244306131791
 31
0.0
  0
LINE
  5
294
330
1CE
100
AcDbEntity
  8
Fills_ Pattern_Pen_No__153
  6
Continuous
100
AcDbLine
 10
1481.561109970027
 20
-320.490215020349
 30
0.0
 11
1482.111725700566
 21
-319.6566648760523
 31
0.0
  0
LINE
  5
295
330
1CE
100
AcDbEntity
  8
Fills_ Pattern_Pen_No__153
  6
Continuous
100
AcDbLine
 10
1475.095325562857
 20
-314.0244306131791
 30
0.0
 11
1475.645941293396
 21
-313.1908804688825
 31
0.0
  0
LINE
  5
296
330
1CE
100
AcDbEntity
  8
Fills_ Pattern_Pen_No__153
  6
Continuous
100
AcDbLine
 10
1482.111725700566
 20
-319.6566648760523
 30
0.0
 11
1482.668223417717
 21
-318.8270301271544
 31
0.0
  0
LINE
  5
297
330
1CE
100
AcDbEntity
  8
Fills_ Pattern_Pen_No__153
  6
Continuous
100
AcDbLine
 10
1475.645941293396
 20
-313.1908804688825
 30
0.0
 11
1476.202439010547
 21
-312.3612457199846
 31
0.0
  0
LINE
  5
298
330
1CE
100
AcDbEntity
  8
Fills_ Pattern_Pen_No__153
  6
Continuous
100
AcDbLine
 10
1477.431737038297
 20
-313.590543747735
 30
0.0
 11
1476.91269681449
 21
-315.276421334402
 31
0.0
  0
LINE
  5
299
330
1CE
100
AcDbEntity
  8
Fills_ Pattern_Pen_No__153
  6
Continuous
100
AcDbLine
 10
1483.355887181139
 20
-321.8054821666293
 30
0.0
 11
1482.785303337893
 21
-323.4034480445992
 31
0.0
  0
LINE
  5
29A
330
1CE
100
AcDbEntity
  8
Fills_ Pattern_Pen_No__153
  6
Continuous
100
AcDbLine
 10
1476.91269681449
 20
-315.276421334402
 30
0.0
 11
1476.319518930723
 21
-316.9376636374293
 31
0.0
  0
LINE
  5
29B
330
1CE
100
AcDbEntity
  8
Fills_ Pattern_Pen_No__153
  6
Continuous
100
AcDbLine
 10
1482.785303337893
 20
-323.4034480445992
 30
0.0
 11
1482.119151296174
 21
-325.0367965831761
 31
0.0
  0
LINE
  5
29C
330
1CE
100
AcDbEntity
  8
Fills_ Pattern_Pen_No__153
  6
Continuous
100
AcDbLine
 10
1476.319518930723
 20
-316.9376636374293
 30
0.0
 11
1475.653366889005
 21
-318.5710121760063
 31
0.0
  0
LINE
  5
29D
330
1CE
100
AcDbEntity
  8
Fills_ Pattern_Pen_No__153
  6
Continuous
100
AcDbLine
 10
1482.119151296174
 20
-325.0367965831761
 30
0.0
 11
1481.381331735301
 21
-326.6390475893389
 31
0.0
  0
LINE
  5
29E
330
1CE
100
AcDbEntity
  8
Fills_ Pattern_Pen_No__153
  6
Continuous
100
AcDbLine
 10
1475.653366889005
 20
-318.5710121760063
 30
0.0
 11
1474.915547328131
 21
-320.173263182169
 31
0.0
  0
LINE
  5
29F
330
1CE
100
AcDbEntity
  8
Fills_ Pattern_Pen_No__153
  6
Continuous
100
AcDbLine
 10
1481.381331735301
 20
-326.6390475893389
 30
0.0
 11
1480.573291867926
 21
-328.2070582920733
 31
0.0
  0
LINE
  5
2A0
330
1CE
100
AcDbEntity
  8
Fills_ Pattern_Pen_No__153
  6
Continuous
100
AcDbLine
 10
1474.915547328131
 20
-320.173263182169
 30
0.0
 11
1474.355887181149
 21
-321.2592901664727
 31
0.0
  0
LINE
  5
2A1
330
1CE
100
AcDbEntity
  8
Fills_ Pattern_Pen_No__153
  6
Continuous
100
AcDbLine
 10
1480.573291867926
 20
-328.2070582920733
 30
0.0
 11
1479.696616641891
 21
-329.7377530817727
 31
0.0
  0
LINE
  5
2A2
330
1CE
100
AcDbEntity
  8
Fills_ Pattern_Pen_No__153
  6
Continuous
100
AcDbLine
 10
1479.696616641891
 20
-329.7377530817727
 30
0.0
 11
1478.753025631394
 21
-331.2281295429614
 31
0.0
  0
LINE
  5
2A3
330
1CE
100
AcDbEntity
  8
Fills_ Pattern_Pen_No__153
  6
Continuous
100
AcDbLine
 10
1478.753025631394
 20
-331.2281295429614
 30
0.0
 11
1477.744369664092
 21
-332.6752643434497
 31
0.0
  0
LINE
  5
2A4
330
1CE
100
AcDbEntity
  8
Fills_ Pattern_Pen_No__153
  6
Continuous
100
AcDbLine
 10
1478.928991435532
 20
-315.087798144969
 30
0.0
 11
1478.580737317298
 21
-315.9396185193971
 31
0.0
  0
LINE
  5
2A5
330
1CE
100
AcDbEntity
  8
Fills_ Pattern_Pen_No__153
  6
Continuous
100
AcDbLine
 10
1478.580737317298
 20
-315.9396185193971
 30
0.0
 11
1478.218624375553
 21
-316.7856404449868
 31
0.0
  0
LINE
  5
2A6
330
1CE
100
AcDbEntity
  8
Fills_ Pattern_Pen_No__153
  6
Continuous
100
AcDbLine
 10
1478.218624375553
 20
-316.7856404449868
 30
0.0
 11
1477.842749111589
 21
-317.6256384611146
 31
0.0
  0
LINE
  5
2A7
330
1CE
100
AcDbEntity
  8
Fills_ Pattern_Pen_No__153
  6
Continuous
100
AcDbLine
 10
1477.842749111589
 20
-317.6256384611146
 30
0.0
 11
1477.453211694292
 21
-318.4593887124985
 31
0.0
  0
LINE
  5
2A8
330
1CE
100
AcDbEntity
  8
Fills_ Pattern_Pen_No__153
  6
Continuous
100
AcDbLine
 10
1477.453211694292
 20
-318.4593887124985
 30
0.0
 11
1477.050115933438
 21
-319.286669008855
 31
0.0
  0
LINE
  5
2A9
330
1CE
100
AcDbEntity
  8
Fills_ Pattern_Pen_No__153
  6
Continuous
100
AcDbLine
 10
1483.355887181139
 20
-326.0676766177234
 30
0.0
 11
1483.099353659208
 21
-326.573043291281
 31
0.0
  0
LINE
  5
2AA
330
1CE
100
AcDbEntity
  8
Fills_ Pattern_Pen_No__153
  6
Continuous
100
AcDbLine
 10
1477.050115933438
 20
-319.286669008855
 30
0.0
 11
1476.633569252039
 21
-320.1072588841111
 31
0.0
  0
LINE
  5
2AB
330
1CE
100
AcDbEntity
  8
Fills_ Pattern_Pen_No__153
  6
Continuous
100
AcDbLine
 10
1483.099353659208
 20
-326.573043291281
 30
0.0
 11
1482.669467064876
 21
-327.3867240623276
 31
0.0
  0
LINE
  5
2AC
330
1CE
100
AcDbEntity
  8
Fills_ Pattern_Pen_No__153
  6
Continuous
100
AcDbLine
 10
1476.633569252039
 20
-320.1072588841111
 30
0.0
 11
1476.203682657707
 21
-320.9209396551578
 31
0.0
  0
LINE
  5
2AD
330
1CE
100
AcDbEntity
  8
Fills_ Pattern_Pen_No__153
  6
Continuous
100
AcDbLine
 10
1482.669467064876
 20
-327.3867240623276
 30
0.0
 11
1482.226355120244
 21
-328.1932788872975
 31
0.0
  0
LINE
  5
2AE
330
1CE
100
AcDbEntity
  8
Fills_ Pattern_Pen_No__153
  6
Continuous
100
AcDbLine
 10
1476.203682657707
 20
-320.9209396551578
 30
0.0
 11
1475.760570713075
 21
-321.7274944801277
 31
0.0
  0
LINE
  5
2AF
330
1CE
100
AcDbEntity
  8
Fills_ Pattern_Pen_No__153
  6
Continuous
100
AcDbLine
 10
1478.72799865278
 20
-318.760066540422
 30
0.0
 11
1478.91429595115
 21
-318.4627028874546
 31
0.0
  0
LINE
  5
2B0
330
1CE
100
AcDbEntity
  8
Fills_ Pattern_Pen_No__153
  6
Continuous
100
AcDbLine
 10
1478.91429595115
 20
-318.4627028874546
 30
0.0
 11
1479.100978484952
 21
-318.1655809309126
 31
0.0
  0
LINE
  5
2B1
330
1CE
100
AcDbEntity
  8
Fills_ Pattern_Pen_No__153
  6
Continuous
100
AcDbLine
 10
1479.100978484952
 20
-318.1655809309126
 30
0.0
 11
1479.288045940617
 21
-317.8687011698693
 31
0.0
  0
LINE
  5
2B2
330
1CE
100
AcDbEntity
  8
Fills_ Pattern_Pen_No__153
  6
Continuous
100
AcDbLine
 10
1479.288045940617
 20
-317.8687011698693
 30
0.0
 11
1479.475498003928
 21
-317.572064102991
 31
0.0
  0
LINE
  5
2B3
330
1CE
100
AcDbEntity
  8
Fills_ Pattern_Pen_No__153
  6
Continuous
100
AcDbLine
 10
1479.475498003928
 20
-317.572064102991
 30
0.0
 11
1479.663334360026
 21
-317.2756702285366
 31
0.0
  0
LINE
  5
2B4
330
1CE
100
AcDbEntity
  8
Fills_ Pattern_Pen_No__153
  6
Continuous
100
AcDbLine
 10
1479.663334360026
 20
-317.2756702285366
 30
0.0
 11
1479.851554693402
 21
-316.9795200443565
 31
0.0
  0
LINE
  5
2B5
330
1CE
100
AcDbEntity
  8
Fills_ Pattern_Pen_No__153
  6
Continuous
100
AcDbLine
 10
1479.851554693402
 20
-316.9795200443565
 30
0.0
 11
1480.040158687904
 21
-316.6836140478916
 31
0.0
  0
LINE
  5
2B6
330
1CE
100
AcDbEntity
  8
Fills_ Pattern_Pen_No__153
  6
Continuous
100
AcDbLine
 10
1480.040158687904
 20
-316.6836140478916
 30
0.0
 11
1480.229146026736
 21
-316.387952736173
 31
0.0
  0
ENDBLK
  5
2B7
330
1CE
100
AcDbEntity
  8
0
100
AcDbBlockEnd
  0
BLOCK
  5
2B9
330
2B8
100
AcDbEntity
  8
0
100
AcDbBlockBegin
  2
Fill_2
 70
     0
 10
0.0
 20
0.0
 30
0.0
  3
Fill_2
  1

  0
INSERT
  5
2BA
330
2B8
100
AcDbEntity
  8
Fills_ Pattern_Pen_No__153
  6
Continuous
100
AcDbBlockReference
  2
*X18
 10
0.0
 20
0.0
 30
0.0
  0
ENDBLK
  5
2BB
330
2B8
100
AcDbEntity
  8
0
100
AcDbBlockEnd
  0
BLOCK
  5
2BD
330
2BC
100
AcDbEntity
  8
0
100
AcDbBlockBegin
  2
*X18
 70
     1
 10
0.0
 20
0.0
 30
0.0
  3
*X18
  1

  0
LINE
  5
2BE
330
2BC
100
AcDbEntity
  8
Fills_ Pattern_Pen_No__153
  6
Continuous
100
AcDbLine
 10
1574.764298484571
 20
-514.2257696462537
 30
0.0
 11
1574.506712599981
 21
-516.2864567229791
 31
0.0
  0
LINE
  5
2BF
330
2BC
100
AcDbEntity
  8
Fills_ Pattern_Pen_No__153
  6
Continuous
100
AcDbLine
 10
1524.764298484571
 20
-464.2257696462537
 30
0.0
 11
1524.506712599981
 21
-466.2864567229791
 31
0.0
  0
LINE
  5
2C0
330
2BC
100
AcDbEntity
  8
Fills_ Pattern_Pen_No__153
  6
Continuous
100
AcDbLine
 10
1574.764298484571
 20
-464.2257696462537
 30
0.0
 11
1574.506712599981
 21
-466.2864567229791
 31
0.0
  0
LINE
  5
2C1
330
2BC
100
AcDbEntity
  8
Fills_ Pattern_Pen_No__153
  6
Continuous
100
AcDbLine
 10
1474.764298484571
 20
-414.2257696462537
 30
0.0
 11
1474.50671259998
 21
-416.2864567229791
 31
0.0
  0
LINE
  5
2C2
330
2BC
100
AcDbEntity
  8
Fills_ Pattern_Pen_No__153
  6
Continuous
100
AcDbLine
 10
1524.764298484571
 20
-414.2257696462537
 30
0.0
 11
1524.506712599981
 21
-416.2864567229791
 31
0.0
  0
LINE
  5
2C3
330
2BC
100
AcDbEntity
  8
Fills_ Pattern_Pen_No__153
  6
Continuous
100
AcDbLine
 10
1574.764298484571
 20
-414.2257696462537
 30
0.0
 11
1574.506712599981
 21
-416.2864567229791
 31
0.0
  0
LINE
  5
2C4
330
2BC
100
AcDbEntity
  8
Fills_ Pattern_Pen_No__153
  6
Continuous
100
AcDbLine
 10
1474.764298484571
 20
-364.2257696462538
 30
0.0
 11
1474.50671259998
 21
-366.2864567229792
 31
0.0
  0
LINE
  5
2C5
330
2BC
100
AcDbEntity
  8
Fills_ Pattern_Pen_No__153
  6
Continuous
100
AcDbLine
 10
1524.764298484571
 20
-364.2257696462538
 30
0.0
 11
1524.506712599981
 21
-366.2864567229792
 31
0.0
  0
LINE
  5
2C6
330
2BC
100
AcDbEntity
  8
Fills_ Pattern_Pen_No__153
  6
Continuous
100
AcDbLine
 10
1574.764298484571
 20
-364.2257696462538
 30
0.0
 11
1574.506712599981
 21
-366.2864567229792
 31
0.0
  0
LINE
  5
2C7
330
2BC
100
AcDbEntity
  8
Fills_ Pattern_Pen_No__153
  6
Continuous
100
AcDbLine
 10
1574.506712599981
 20
-516.2864567229791
 30
0.0
 11
1577.468950272774
 21
-515.8356814249454
 31
0.0
  0
LINE
  5
2C8
330
2BC
100
AcDbEntity
  8
Fills_ Pattern_Pen_No__153
  6
Continuous
100
AcDbLine
 10
1524.506712599981
 20
-466.2864567229791
 30
0.0
 11
1527.468950272773
 21
-465.8356814249454
 31
0.0
  0
LINE
  5
2C9
330
2BC
100
AcDbEntity
  8
Fills_ Pattern_Pen_No__153
  6
Continuous
100
AcDbLine
 10
1574.506712599981
 20
-466.2864567229791
 30
0.0
 11
1577.468950272774
 21
-465.8356814249454
 31
0.0
  0
LINE
  5
2CA
330
2BC
100
AcDbEntity
  8
Fills_ Pattern_Pen_No__153
  6
Continuous
100
AcDbLine
 10
1474.50671259998
 20
-416.2864567229791
 30
0.0
 11
1477.468950272773
 21
-415.8356814249455
 31
0.0
  0
LINE
  5
2CB
330
2BC
100
AcDbEntity
  8
Fills_ Pattern_Pen_No__153
  6
Continuous
100
AcDbLine
 10
1524.506712599981
 20
-416.2864567229791
 30
0.0
 11
1527.468950272773
 21
-415.8356814249455
 31
0.0
  0
LINE
  5
2CC
330
2BC
100
AcDbEntity
  8
Fills_ Pattern_Pen_No__153
  6
Continuous
100
AcDbLine
 10
1574.506712599981
 20
-416.2864567229791
 30
0.0
 11
1577.468950272774
 21
-415.8356814249455
 31
0.0
  0
LINE
  5
2CD
330
2BC
100
AcDbEntity
  8
Fills_ Pattern_Pen_No__153
  6
Continuous
100
AcDbLine
 10
1474.50671259998
 20
-366.2864567229792
 30
0.0
 11
1477.468950272773
 21
-365.8356814249456
 31
0.0
  0
LINE
  5
2CE
330
2BC
100
AcDbEntity
  8
Fills_ Pattern_Pen_No__153
  6
Continuous
100
AcDbLine
 10
1524.506712599981
 20
-366.2864567229792
 30
0.0
 11
1527.468950272773
 21
-365.8356814249456
 31
0.0
  0
LINE
  5
2CF
330
2BC
100
AcDbEntity
  8
Fills_ Pattern_Pen_No__153
  6
Continuous
100
AcDbLine
 10
1574.506712599981
 20
-366.2864567229792
 30
0.0
 11
1577.468950272774
 21
-365.8356814249456
 31
0.0
  0
LINE
  5
2D0
330
2BC
100
AcDbEntity
  8
Fills_ Pattern_Pen_No__153
  6
Continuous
100
AcDbLine
 10
1577.468950272774
 20
-515.8356814249454
 30
0.0
 11
1574.764298484571
 21
-514.2257696462537
 31
0.0
  0
LINE
  5
2D1
330
2BC
100
AcDbEntity
  8
Fills_ Pattern_Pen_No__153
  6
Continuous
100
AcDbLine
 10
1527.468950272773
 20
-465.8356814249454
 30
0.0
 11
1524.764298484571
 21
-464.2257696462537
 31
0.0
  0
LINE
  5
2D2
330
2BC
100
AcDbEntity
  8
Fills_ Pattern_Pen_No__153
  6
Continuous
100
AcDbLine
 10
1577.468950272774
 20
-465.8356814249454
 30
0.0
 11
1574.764298484571
 21
-464.2257696462537
 31
0.0
  0
LINE
  5
2D3
330
2BC
100
AcDbEntity
  8
Fills_ Pattern_Pen_No__153
  6
Continuous
100
AcDbLine
 10
1477.468950272773
 20
-415.8356814249455
 30
0.0
 11
1474.764298484571
 21
-414.2257696462537
 31
0.0
  0
LINE
  5
2D4
330
2BC
100
AcDbEntity
  8
Fills_ Pattern_Pen_No__153
  6
Continuous
100
AcDbLine
 10
1527.468950272773
 20
-415.8356814249455
 30
0.0
 11
1524.764298484571
 21
-414.2257696462537
 31
0.0
  0
LINE
  5
2D5
330
2BC
100
AcDbEntity
  8
Fills_ Pattern_Pen_No__153
  6
Continuous
100
AcDbLine
 10
1577.468950272774
 20
-415.8356814249455
 30
0.0
 11
1574.764298484571
 21
-414.2257696462537
 31
0.0
  0
LINE
  5
2D6
330
2BC
100
AcDbEntity
  8
Fills_ Pattern_Pen_No__153
  6
Continuous
100
AcDbLine
 10
1477.468950272773
 20
-365.8356814249456
 30
0.0
 11
1474.764298484571
 21
-364.2257696462538
 31
0.0
  0
LINE
  5
2D7
330
2BC
100
AcDbEntity
  8
Fills_ Pattern_Pen_No__153
  6
Continuous
100
AcDbLine
 10
1527.468950272773
 20
-365.8356814249456
 30
0.0
 11
1524.764298484571
 21
-364.2257696462538
 31
0.0
  0
LINE
  5
2D8
330
2BC
100
AcDbEntity
  8
Fills_ Pattern_Pen_No__153
  6
Continuous
100
AcDbLine
 10
1577.468950272774
 20
-365.8356814249456
 30
0.0
 11
1574.764298484571
 21
-364.2257696462538
 31
0.0
  0
LINE
  5
2D9
330
2BC
100
AcDbEntity
  8
Fills_ Pattern_Pen_No__153
  6
Continuous
100
AcDbLine
 10
1506.739948267136
 20
-471.3071946819566
 30
0.0
 11
1506.303909465634
 21
-472.5668623307385
 31
0.0
  0
LINE
  5
2DA
330
2BC
100
AcDbEntity
  8
Fills_ Pattern_Pen_No__153
  6
Continuous
100
AcDbLine
 10
1556.739948267136
 20
-471.3071946819566
 30
0.0
 11
1556.303909465634
 21
-472.5668623307385
 31
0.0
  0
LINE
  5
2DB
330
2BC
100
AcDbEntity
  8
Fills_ Pattern_Pen_No__153
  6
Continuous
100
AcDbLine
 10
1506.739948267136
 20
-421.3071946819566
 30
0.0
 11
1506.303909465634
 21
-422.5668623307385
 31
0.0
  0
LINE
  5
2DC
330
2BC
100
AcDbEntity
  8
Fills_ Pattern_Pen_No__153
  6
Continuous
100
AcDbLine
 10
1556.739948267136
 20
-421.3071946819566
 30
0.0
 11
1556.303909465634
 21
-422.5668623307385
 31
0.0
  0
LINE
  5
2DD
330
2BC
100
AcDbEntity
  8
Fills_ Pattern_Pen_No__153
  6
Continuous
100
AcDbLine
 10
1456.739948267136
 20
-371.3071946819566
 30
0.0
 11
1456.303909465634
 21
-372.5668623307387
 31
0.0
  0
LINE
  5
2DE
330
2BC
100
AcDbEntity
  8
Fills_ Pattern_Pen_No__153
  6
Continuous
100
AcDbLine
 10
1506.739948267136
 20
-371.3071946819566
 30
0.0
 11
1506.303909465634
 21
-372.5668623307387
 31
0.0
  0
LINE
  5
2DF
330
2BC
100
AcDbEntity
  8
Fills_ Pattern_Pen_No__153
  6
Continuous
100
AcDbLine
 10
1556.739948267136
 20
-371.3071946819566
 30
0.0
 11
1556.303909465634
 21
-372.5668623307387
 31
0.0
  0
LINE
  5
2E0
330
2BC
100
AcDbEntity
  8
Fills_ Pattern_Pen_No__153
  6
Continuous
100
AcDbLine
 10
1506.303909465634
 20
-472.5668623307385
 30
0.0
 11
1506.643050755691
 21
-472.4699648192937
 31
0.0
  0
LINE
  5
2E1
330
2BC
100
AcDbEntity
  8
Fills_ Pattern_Pen_No__153
  6
Continuous
100
AcDbLine
 10
1556.303909465634
 20
-472.5668623307385
 30
0.0
 11
1556.643050755691
 21
-472.4699648192937
 31
0.0
  0
LINE
  5
2E2
330
2BC
100
AcDbEntity
  8
Fills_ Pattern_Pen_No__153
  6
Continuous
100
AcDbLine
 10
1506.303909465634
 20
-422.5668623307385
 30
0.0
 11
1506.643050755691
 21
-422.4699648192937
 31
0.0
  0
LINE
  5
2E3
330
2BC
100
AcDbEntity
  8
Fills_ Pattern_Pen_No__153
  6
Continuous
100
AcDbLine
 10
1556.303909465634
 20
-422.5668623307385
 30
0.0
 11
1556.643050755691
 21
-422.4699648192937
 31
0.0
  0
LINE
  5
2E4
330
2BC
100
AcDbEntity
  8
Fills_ Pattern_Pen_No__153
  6
Continuous
100
AcDbLine
 10
1456.303909465634
 20
-372.5668623307387
 30
0.0
 11
1456.643050755691
 21
-372.4699648192939
 31
0.0
  0
LINE
  5
2E5
330
2BC
100
AcDbEntity
  8
Fills_ Pattern_Pen_No__153
  6
Continuous
100
AcDbLine
 10
1506.303909465634
 20
-372.5668623307387
 30
0.0
 11
1506.643050755691
 21
-372.4699648192939
 31
0.0
  0
LINE
  5
2E6
330
2BC
100
AcDbEntity
  8
Fills_ Pattern_Pen_No__153
  6
Continuous
100
AcDbLine
 10
1556.303909465634
 20
-372.5668623307387
 30
0.0
 11
1556.643050755691
 21
-372.4699648192939
 31
0.0
  0
LINE
  5
2E7
330
2BC
100
AcDbEntity
  8
Fills_ Pattern_Pen_No__153
  6
Continuous
100
AcDbLine
 10
1506.643050755691
 20
-472.4699648192937
 30
0.0
 11
1506.739948267136
 21
-471.3071946819566
 31
0.0
  0
LINE
  5
2E8
330
2BC
100
AcDbEntity
  8
Fills_ Pattern_Pen_No__153
  6
Continuous
100
AcDbLine
 10
1556.643050755691
 20
-472.4699648192937
 30
0.0
 11
1556.739948267136
 21
-471.3071946819566
 31
0.0
  0
LINE
  5
2E9
330
2BC
100
AcDbEntity
  8
Fills_ Pattern_Pen_No__153
  6
Continuous
100
AcDbLine
 10
1506.643050755691
 20
-422.4699648192937
 30
0.0
 11
1506.739948267136
 21
-421.3071946819566
 31
0.0
  0
LINE
  5
2EA
330
2BC
100
AcDbEntity
  8
Fills_ Pattern_Pen_No__153
  6
Continuous
100
AcDbLine
 10
1556.643050755691
 20
-422.4699648192937
 30
0.0
 11
1556.739948267136
 21
-421.3071946819566
 31
0.0
  0
LINE
  5
2EB
330
2BC
100
AcDbEntity
  8
Fills_ Pattern_Pen_No__153
  6
Continuous
100
AcDbLine
 10
1456.643050755691
 20
-372.4699648192939
 30
0.0
 11
1456.739948267136
 21
-371.3071946819566
 31
0.0
  0
LINE
  5
2EC
330
2BC
100
AcDbEntity
  8
Fills_ Pattern_Pen_No__153
  6
Continuous
100
AcDbLine
 10
1506.643050755691
 20
-372.4699648192939
 30
0.0
 11
1506.739948267136
 21
-371.3071946819566
 31
0.0
  0
LINE
  5
2ED
330
2BC
100
AcDbEntity
  8
Fills_ Pattern_Pen_No__153
  6
Continuous
100
AcDbLine
 10
1556.643050755691
 20
-372.4699648192939
 30
0.0
 11
1556.739948267136
 21
-371.3071946819566
 31
0.0
  0
LINE
  5
2EE
330
2BC
100
AcDbEntity
  8
Fills_ Pattern_Pen_No__153
  6
Continuous
100
AcDbLine
 10
1527.841087326337
 20
-489.8485586755836
 30
0.0
 11
1530.291502562944
 21
-491.4821688333214
 31
0.0
  0
LINE
  5
2EF
330
2BC
100
AcDbEntity
  8
Fills_ Pattern_Pen_No__153
  6
Continuous
100
AcDbLine
 10
1577.841087326337
 20
-489.8485586755836
 30
0.0
 11
1580.137033051608
 21
-491.3791891590975
 31
0.0
  0
LINE
  5
2F0
330
2BC
100
AcDbEntity
  8
Fills_ Pattern_Pen_No__153
  6
Continuous
100
AcDbLine
 10
1527.841087326337
 20
-439.8485586755836
 30
0.0
 11
1530.291502562944
 21
-441.4821688333214
 31
0.0
  0
LINE
  5
2F1
330
2BC
100
AcDbEntity
  8
Fills_ Pattern_Pen_No__153
  6
Continuous
100
AcDbLine
 10
1577.841087326337
 20
-439.8485586755836
 30
0.0
 11
1580.137033051608
 21
-441.3791891590975
 31
0.0
  0
LINE
  5
2F2
330
2BC
100
AcDbEntity
  8
Fills_ Pattern_Pen_No__153
  6
Continuous
100
AcDbLine
 10
1477.841087326337
 20
-389.8485586755837
 30
0.0
 11
1480.291502562944
 21
-391.4821688333215
 31
0.0
  0
LINE
  5
2F3
330
2BC
100
AcDbEntity
  8
Fills_ Pattern_Pen_No__153
  6
Continuous
100
AcDbLine
 10
1527.841087326337
 20
-389.8485586755837
 30
0.0
 11
1530.291502562944
 21
-391.4821688333215
 31
0.0
  0
LINE
  5
2F4
330
2BC
100
AcDbEntity
  8
Fills_ Pattern_Pen_No__153
  6
Continuous
100
AcDbLine
 10
1577.841087326337
 20
-389.8485586755837
 30
0.0
 11
1580.137033051608
 21
-391.3791891590976
 31
0.0
  0
LINE
  5
2F5
330
2BC
100
AcDbEntity
  8
Fills_ Pattern_Pen_No__153
  6
Continuous
100
AcDbLine
 10
1530.291502562944
 20
-491.4821688333214
 30
0.0
 11
1529.801419515623
 21
-490.3386417229049
 31
0.0
  0
LINE
  5
2F6
330
2BC
100
AcDbEntity
  8
Fills_ Pattern_Pen_No__153
  6
Continuous
100
AcDbLine
 10
1580.137033051608
 20
-491.1217399735378
 30
0.0
 11
1579.801419515623
 21
-490.3386417229049
 31
0.0
  0
LINE
  5
2F7
330
2BC
100
AcDbEntity
  8
Fills_ Pattern_Pen_No__153
  6
Continuous
100
AcDbLine
 10
1530.291502562944
 20
-441.4821688333214
 30
0.0
 11
1529.801419515623
 21
-440.3386417229049
 31
0.0
  0
LINE
  5
2F8
330
2BC
100
AcDbEntity
  8
Fills_ Pattern_Pen_No__153
  6
Continuous
100
AcDbLine
 10
1580.137033051608
 20
-441.1217399735379
 30
0.0
 11
1579.801419515623
 21
-440.3386417229049
 31
0.0
  0
LINE
  5
2F9
330
2BC
100
AcDbEntity
  8
Fills_ Pattern_Pen_No__153
  6
Continuous
100
AcDbLine
 10
1480.291502562944
 20
-391.4821688333215
 30
0.0
 11
1479.801419515623
 21
-390.3386417229049
 31
0.0
  0
LINE
  5
2FA
330
2BC
100
AcDbEntity
  8
Fills_ Pattern_Pen_No__153
  6
Continuous
100
AcDbLine
 10
1530.291502562944
 20
-391.4821688333215
 30
0.0
 11
1529.801419515623
 21
-390.3386417229049
 31
0.0
  0
LINE
  5
2FB
330
2BC
100
AcDbEntity
  8
Fills_ Pattern_Pen_No__153
  6
Continuous
100
AcDbLine
 10
1580.137033051608
 20
-391.1217399735379
 30
0.0
 11
1579.801419515623
 21
-390.3386417229049
 31
0.0
  0
LINE
  5
2FC
330
2BC
100
AcDbEntity
  8
Fills_ Pattern_Pen_No__153
  6
Continuous
100
AcDbLine
 10
1529.801419515623
 20
-490.3386417229049
 30
0.0
 11
1527.841087326337
 21
-489.8485586755836
 31
0.0
  0
LINE
  5
2FD
330
2BC
100
AcDbEntity
  8
Fills_ Pattern_Pen_No__153
  6
Continuous
100
AcDbLine
 10
1579.801419515623
 20
-490.3386417229049
 30
0.0
 11
1577.841087326337
 21
-489.8485586755836
 31
0.0
  0
LINE
  5
2FE
330
2BC
100
AcDbEntity
  8
Fills_ Pattern_Pen_No__153
  6
Continuous
100
AcDbLine
 10
1529.801419515623
 20
-440.3386417229049
 30
0.0
 11
1527.841087326337
 21
-439.8485586755836
 31
0.0
  0
LINE
  5
2FF
330
2BC
100
AcDbEntity
  8
Fills_ Pattern_Pen_No__153
  6
Continuous
100
AcDbLine
 10
1579.801419515623
 20
-440.3386417229049
 30
0.0
 11
1577.841087326337
 21
-439.8485586755836
 31
0.0
  0
LINE
  5
300
330
2BC
100
AcDbEntity
  8
Fills_ Pattern_Pen_No__153
  6
Continuous
100
AcDbLine
 10
1479.801419515623
 20
-390.3386417229049
 30
0.0
 11
1477.841087326337
 21
-389.8485586755837
 31
0.0
  0
LINE
  5
301
330
2BC
100
AcDbEntity
  8
Fills_ Pattern_Pen_No__153
  6
Continuous
100
AcDbLine
 10
1529.801419515623
 20
-390.3386417229049
 30
0.0
 11
1527.841087326337
 21
-389.8485586755837
 31
0.0
  0
LINE
  5
302
330
2BC
100
AcDbEntity
  8
Fills_ Pattern_Pen_No__153
  6
Continuous
100
AcDbLine
 10
1579.801419515623
 20
-390.3386417229049
 30
0.0
 11
1577.841087326337
 21
-389.8485586755837
 31
0.0
  0
LINE
  5
303
330
2BC
100
AcDbEntity
  8
Fills_ Pattern_Pen_No__153
  6
Continuous
100
AcDbLine
 10
1549.08954855015
 20
-501.9488030160647
 30
0.0
 11
1548.762826518603
 21
-503.9091352053501
 31
0.0
  0
LINE
  5
304
330
2BC
100
AcDbEntity
  8
Fills_ Pattern_Pen_No__153
  6
Continuous
100
AcDbLine
 10
1499.08954855015
 20
-451.9488030160647
 30
0.0
 11
1498.762826518603
 21
-453.9091352053501
 31
0.0
  0
LINE
  5
305
330
2BC
100
AcDbEntity
  8
Fills_ Pattern_Pen_No__153
  6
Continuous
100
AcDbLine
 10
1549.08954855015
 20
-451.9488030160647
 30
0.0
 11
1548.762826518603
 21
-453.9091352053501
 31
0.0
  0
LINE
  5
306
330
2BC
100
AcDbEntity
  8
Fills_ Pattern_Pen_No__153
  6
Continuous
100
AcDbLine
 10
1499.08954855015
 20
-401.9488030160647
 30
0.0
 11
1498.762826518603
 21
-403.9091352053501
 31
0.0
  0
LINE
  5
307
330
2BC
100
AcDbEntity
  8
Fills_ Pattern_Pen_No__153
  6
Continuous
100
AcDbLine
 10
1549.08954855015
 20
-401.9488030160647
 30
0.0
 11
1548.762826518603
 21
-403.9091352053501
 31
0.0
  0
LINE
  5
308
330
2BC
100
AcDbEntity
  8
Fills_ Pattern_Pen_No__153
  6
Continuous
100
AcDbLine
 10
1548.762826518603
 20
-503.9091352053501
 30
0.0
 11
1550.559797692115
 21
-502.7656080949335
 31
0.0
  0
LINE
  5
309
330
2BC
100
AcDbEntity
  8
Fills_ Pattern_Pen_No__153
  6
Continuous
100
AcDbLine
 10
1498.762826518603
 20
-453.9091352053501
 30
0.0
 11
1500.559797692115
 21
-452.7656080949336
 31
0.0
  0
LINE
  5
30A
330
2BC
100
AcDbEntity
  8
Fills_ Pattern_Pen_No__153
  6
Continuous
100
AcDbLine
 10
1548.762826518603
 20
-453.9091352053501
 30
0.0
 11
1550.559797692115
 21
-452.7656080949336
 31
0.0
  0
LINE
  5
30B
330
2BC
100
AcDbEntity
  8
Fills_ Pattern_Pen_No__153
  6
Continuous
100
AcDbLine
 10
1498.762826518603
 20
-403.9091352053501
 30
0.0
 11
1500.559797692115
 21
-402.7656080949336
 31
0.0
  0
LINE
  5
30C
330
2BC
100
AcDbEntity
  8
Fills_ Pattern_Pen_No__153
  6
Continuous
100
AcDbLine
 10
1548.762826518603
 20
-403.9091352053501
 30
0.0
 11
1550.559797692115
 21
-402.7656080949336
 31
0.0
  0
LINE
  5
30D
330
2BC
100
AcDbEntity
  8
Fills_ Pattern_Pen_No__153
  6
Continuous
100
AcDbLine
 10
1550.559797692115
 20
-502.7656080949335
 30
0.0
 11
1549.08954855015
 21
-501.9488030160647
 31
0.0
  0
LINE
  5
30E
330
2BC
100
AcDbEntity
  8
Fills_ Pattern_Pen_No__153
  6
Continuous
100
AcDbLine
 10
1500.559797692115
 20
-452.7656080949336
 30
0.0
 11
1499.08954855015
 21
-451.9488030160647
 31
0.0
  0
LINE
  5
30F
330
2BC
100
AcDbEntity
  8
Fills_ Pattern_Pen_No__153
  6
Continuous
100
AcDbLine
 10
1550.559797692115
 20
-452.7656080949336
 30
0.0
 11
1549.08954855015
 21
-451.9488030160647
 31
0.0
  0
LINE
  5
310
330
2BC
100
AcDbEntity
  8
Fills_ Pattern_Pen_No__153
  6
Continuous
100
AcDbLine
 10
1500.559797692115
 20
-402.7656080949336
 30
0.0
 11
1499.08954855015
 21
-401.9488030160647
 31
0.0
  0
LINE
  5
311
330
2BC
100
AcDbEntity
  8
Fills_ Pattern_Pen_No__153
  6
Continuous
100
AcDbLine
 10
1550.559797692115
 20
-402.7656080949336
 30
0.0
 11
1549.08954855015
 21
-401.9488030160647
 31
0.0
  0
LINE
  5
312
330
2BC
100
AcDbEntity
  8
Fills_ Pattern_Pen_No__153
  6
Continuous
100
AcDbLine
 10
1563.313486095691
 20
-516.4994625931526
 30
0.0
 11
1563.531267959052
 21
-517.1255854503158
 31
0.0
  0
LINE
  5
313
330
2BC
100
AcDbEntity
  8
Fills_ Pattern_Pen_No__153
  6
Continuous
100
AcDbLine
 10
1513.313486095691
 20
-466.4994625931525
 30
0.0
 11
1514.620374221881
 21
-470.2567659559497
 31
0.0
  0
LINE
  5
314
330
2BC
100
AcDbEntity
  8
Fills_ Pattern_Pen_No__153
  6
Continuous
100
AcDbLine
 10
1563.313486095691
 20
-466.4994625931525
 30
0.0
 11
1564.620374221881
 21
-470.2567659559497
 31
0.0
  0
LINE
  5
315
330
2BC
100
AcDbEntity
  8
Fills_ Pattern_Pen_No__153
  6
Continuous
100
AcDbLine
 10
1513.313486095691
 20
-416.4994625931525
 30
0.0
 11
1514.620374221881
 21
-420.2567659559496
 31
0.0
  0
LINE
  5
316
330
2BC
100
AcDbEntity
  8
Fills_ Pattern_Pen_No__153
  6
Continuous
100
AcDbLine
 10
1563.313486095691
 20
-416.4994625931525
 30
0.0
 11
1564.620374221881
 21
-420.2567659559496
 31
0.0
  0
LINE
  5
317
330
2BC
100
AcDbEntity
  8
Fills_ Pattern_Pen_No__153
  6
Continuous
100
AcDbLine
 10
1463.313486095691
 20
-366.4994625931526
 30
0.0
 11
1464.620374221881
 21
-370.2567659559497
 31
0.0
  0
LINE
  5
318
330
2BC
100
AcDbEntity
  8
Fills_ Pattern_Pen_No__153
  6
Continuous
100
AcDbLine
 10
1513.313486095691
 20
-366.4994625931526
 30
0.0
 11
1514.620374221881
 21
-370.2567659559497
 31
0.0
  0
LINE
  5
319
330
2BC
100
AcDbEntity
  8
Fills_ Pattern_Pen_No__153
  6
Continuous
100
AcDbLine
 10
1563.313486095691
 20
-366.4994625931526
 30
0.0
 11
1564.620374221881
 21
-370.2567659559497
 31
0.0
  0
LINE
  5
31A
330
2BC
100
AcDbEntity
  8
Fills_ Pattern_Pen_No__153
  6
Continuous
100
AcDbLine
 10
1564.620374221881
 20
-517.1255854503158
 30
0.0
 11
1564.620374221881
 21
-516.9895456404739
 31
0.0
  0
LINE
  5
31B
330
2BC
100
AcDbEntity
  8
Fills_ Pattern_Pen_No__153
  6
Continuous
100
AcDbLine
 10
1514.620374221881
 20
-470.2567659559497
 30
0.0
 11
1514.620374221881
 21
-466.989545640474
 31
0.0
  0
LINE
  5
31C
330
2BC
100
AcDbEntity
  8
Fills_ Pattern_Pen_No__153
  6
Continuous
100
AcDbLine
 10
1564.620374221881
 20
-470.2567659559497
 30
0.0
 11
1564.620374221881
 21
-466.989545640474
 31
0.0
  0
LINE
  5
31D
330
2BC
100
AcDbEntity
  8
Fills_ Pattern_Pen_No__153
  6
Continuous
100
AcDbLine
 10
1514.620374221881
 20
-420.2567659559496
 30
0.0
 11
1514.620374221881
 21
-416.989545640474
 31
0.0
  0
LINE
  5
31E
330
2BC
100
AcDbEntity
  8
Fills_ Pattern_Pen_No__153
  6
Continuous
100
AcDbLine
 10
1564.620374221881
 20
-420.2567659559496
 30
0.0
 11
1564.620374221881
 21
-416.989545640474
 31
0.0
  0
LINE
  5
31F
330
2BC
100
AcDbEntity
  8
Fills_ Pattern_Pen_No__153
  6
Continuous
100
AcDbLine
 10
1464.620374221881
 20
-370.2567659559497
 30
0.0
 11
1464.620374221881
 21
-366.989545640474
 31
0.0
  0
LINE
  5
320
330
2BC
100
AcDbEntity
  8
Fills_ Pattern_Pen_No__153
  6
Continuous
100
AcDbLine
 10
1514.620374221881
 20
-370.2567659559497
 30
0.0
 11
1514.620374221881
 21
-366.989545640474
 31
0.0
  0
LINE
  5
321
330
2BC
100
AcDbEntity
  8
Fills_ Pattern_Pen_No__153
  6
Continuous
100
AcDbLine
 10
1564.620374221881
 20
-370.2567659559497
 30
0.0
 11
1564.620374221881
 21
-366.989545640474
 31
0.0
  0
LINE
  5
322
330
2BC
100
AcDbEntity
  8
Fills_ Pattern_Pen_No__153
  6
Continuous
100
AcDbLine
 10
1564.620374221881
 20
-516.9895456404739
 30
0.0
 11
1563.313486095691
 21
-516.4994625931526
 31
0.0
  0
LINE
  5
323
330
2BC
100
AcDbEntity
  8
Fills_ Pattern_Pen_No__153
  6
Continuous
100
AcDbLine
 10
1514.620374221881
 20
-466.989545640474
 30
0.0
 11
1513.313486095691
 21
-466.4994625931525
 31
0.0
  0
LINE
  5
324
330
2BC
100
AcDbEntity
  8
Fills_ Pattern_Pen_No__153
  6
Continuous
100
AcDbLine
 10
1564.620374221881
 20
-466.989545640474
 30
0.0
 11
1563.313486095691
 21
-466.4994625931525
 31
0.0
  0
LINE
  5
325
330
2BC
100
AcDbEntity
  8
Fills_ Pattern_Pen_No__153
  6
Continuous
100
AcDbLine
 10
1514.620374221881
 20
-416.989545640474
 30
0.0
 11
1513.313486095691
 21
-416.4994625931525
 31
0.0
  0
LINE
  5
326
330
2BC
100
AcDbEntity
  8
Fills_ Pattern_Pen_No__153
  6
Continuous
100
AcDbLine
 10
1564.620374221881
 20
-416.989545640474
 30
0.0
 11
1563.313486095691
 21
-416.4994625931525
 31
0.0
  0
LINE
  5
327
330
2BC
100
AcDbEntity
  8
Fills_ Pattern_Pen_No__153
  6
Continuous
100
AcDbLine
 10
1464.620374221881
 20
-366.989545640474
 30
0.0
 11
1463.313486095691
 21
-366.4994625931526
 31
0.0
  0
LINE
  5
328
330
2BC
100
AcDbEntity
  8
Fills_ Pattern_Pen_No__153
  6
Continuous
100
AcDbLine
 10
1514.620374221881
 20
-366.989545640474
 30
0.0
 11
1513.313486095691
 21
-366.4994625931526
 31
0.0
  0
LINE
  5
329
330
2BC
100
AcDbEntity
  8
Fills_ Pattern_Pen_No__153
  6
Continuous
100
AcDbLine
 10
1564.620374221881
 20
-366.989545640474
 30
0.0
 11
1563.313486095691
 21
-366.4994625931526
 31
0.0
  0
LINE
  5
32A
330
2BC
100
AcDbEntity
  8
Fills_ Pattern_Pen_No__153
  6
Continuous
100
AcDbLine
 10
1566.907428442714
 20
-499.9999999999999
 30
0.0
 11
1567.560872505809
 21
-498.8334145431419
 31
0.0
  0
LINE
  5
32B
330
2BC
100
AcDbEntity
  8
Fills_ Pattern_Pen_No__153
  6
Continuous
100
AcDbLine
 10
1516.907428442714
 20
-449.9999999999999
 30
0.0
 11
1517.560872505809
 21
-448.8334145431419
 31
0.0
  0
LINE
  5
32C
330
2BC
100
AcDbEntity
  8
Fills_ Pattern_Pen_No__153
  6
Continuous
100
AcDbLine
 10
1566.907428442714
 20
-449.9999999999999
 30
0.0
 11
1567.560872505809
 21
-448.8334145431419
 31
0.0
  0
LINE
  5
32D
330
2BC
100
AcDbEntity
  8
Fills_ Pattern_Pen_No__153
  6
Continuous
100
AcDbLine
 10
1466.907428442714
 20
-400.0
 30
0.0
 11
1467.560872505809
 21
-398.833414543142
 31
0.0
  0
LINE
  5
32E
330
2BC
100
AcDbEntity
  8
Fills_ Pattern_Pen_No__153
  6
Continuous
100
AcDbLine
 10
1516.907428442714
 20
-400.0
 30
0.0
 11
1517.560872505809
 21
-398.833414543142
 31
0.0
  0
LINE
  5
32F
330
2BC
100
AcDbEntity
  8
Fills_ Pattern_Pen_No__153
  6
Continuous
100
AcDbLine
 10
1566.907428442714
 20
-400.0
 30
0.0
 11
1567.560872505809
 21
-398.833414543142
 31
0.0
  0
LINE
  5
330
330
2BC
100
AcDbEntity
  8
Fills_ Pattern_Pen_No__153
  6
Continuous
100
AcDbLine
 10
1567.560872505809
 20
-498.8334145431419
 30
0.0
 11
1568.867760631999
 21
-498.9967755589157
 31
0.0
  0
LINE
  5
331
330
2BC
100
AcDbEntity
  8
Fills_ Pattern_Pen_No__153
  6
Continuous
100
AcDbLine
 10
1517.560872505809
 20
-448.8334145431419
 30
0.0
 11
1518.867760631999
 21
-448.9967755589157
 31
0.0
  0
LINE
  5
332
330
2BC
100
AcDbEntity
  8
Fills_ Pattern_Pen_No__153
  6
Continuous
100
AcDbLine
 10
1567.560872505809
 20
-448.8334145431419
 30
0.0
 11
1568.867760631999
 21
-448.9967755589157
 31
0.0
  0
LINE
  5
333
330
2BC
100
AcDbEntity
  8
Fills_ Pattern_Pen_No__153
  6
Continuous
100
AcDbLine
 10
1467.560872505809
 20
-398.833414543142
 30
0.0
 11
1468.867760631999
 21
-398.9967755589157
 31
0.0
  0
LINE
  5
334
330
2BC
100
AcDbEntity
  8
Fills_ Pattern_Pen_No__153
  6
Continuous
100
AcDbLine
 10
1517.560872505809
 20
-398.833414543142
 30
0.0
 11
1518.867760631999
 21
-398.9967755589157
 31
0.0
  0
LINE
  5
335
330
2BC
100
AcDbEntity
  8
Fills_ Pattern_Pen_No__153
  6
Continuous
100
AcDbLine
 10
1567.560872505809
 20
-398.833414543142
 30
0.0
 11
1568.867760631999
 21
-398.9967755589157
 31
0.0
  0
LINE
  5
336
330
2BC
100
AcDbEntity
  8
Fills_ Pattern_Pen_No__153
  6
Continuous
100
AcDbLine
 10
1568.867760631999
 20
-498.9967755589157
 30
0.0
 11
1569.521204695095
 21
-499.9999999999999
 31
0.0
  0
LINE
  5
337
330
2BC
100
AcDbEntity
  8
Fills_ Pattern_Pen_No__153
  6
Continuous
100
AcDbLine
 10
1518.867760631999
 20
-448.9967755589157
 30
0.0
 11
1519.521204695095
 21
-449.9999999999999
 31
0.0
  0
LINE
  5
338
330
2BC
100
AcDbEntity
  8
Fills_ Pattern_Pen_No__153
  6
Continuous
100
AcDbLine
 10
1568.867760631999
 20
-448.9967755589157
 30
0.0
 11
1569.521204695095
 21
-449.9999999999999
 31
0.0
  0
LINE
  5
339
330
2BC
100
AcDbEntity
  8
Fills_ Pattern_Pen_No__153
  6
Continuous
100
AcDbLine
 10
1468.867760631999
 20
-398.9967755589157
 30
0.0
 11
1469.521204695094
 21
-400.0
 31
0.0
  0
LINE
  5
33A
330
2BC
100
AcDbEntity
  8
Fills_ Pattern_Pen_No__153
  6
Continuous
100
AcDbLine
 10
1518.867760631999
 20
-398.9967755589157
 30
0.0
 11
1519.521204695095
 21
-400.0
 31
0.0
  0
LINE
  5
33B
330
2BC
100
AcDbEntity
  8
Fills_ Pattern_Pen_No__153
  6
Continuous
100
AcDbLine
 10
1568.867760631999
 20
-398.9967755589157
 30
0.0
 11
1569.521204695095
 21
-400.0
 31
0.0
  0
LINE
  5
33C
330
2BC
100
AcDbEntity
  8
Fills_ Pattern_Pen_No__153
  6
Continuous
100
AcDbLine
 10
1541.236690619788
 20
-500.805275905648
 30
0.0
 11
1539.766441477824
 21
-502.4388860633861
 31
0.0
  0
LINE
  5
33D
330
2BC
100
AcDbEntity
  8
Fills_ Pattern_Pen_No__153
  6
Continuous
100
AcDbLine
 10
1491.236690619787
 20
-450.805275905648
 30
0.0
 11
1489.766441477823
 21
-452.4388860633861
 31
0.0
  0
LINE
  5
33E
330
2BC
100
AcDbEntity
  8
Fills_ Pattern_Pen_No__153
  6
Continuous
100
AcDbLine
 10
1541.236690619788
 20
-450.805275905648
 30
0.0
 11
1539.766441477824
 21
-452.4388860633861
 31
0.0
  0
LINE
  5
33F
330
2BC
100
AcDbEntity
  8
Fills_ Pattern_Pen_No__153
  6
Continuous
100
AcDbLine
 10
1491.236690619787
 20
-400.805275905648
 30
0.0
 11
1489.766441477823
 21
-402.4388860633861
 31
0.0
  0
LINE
  5
340
330
2BC
100
AcDbEntity
  8
Fills_ Pattern_Pen_No__153
  6
Continuous
100
AcDbLine
 10
1541.236690619788
 20
-400.805275905648
 30
0.0
 11
1539.766441477824
 21
-402.4388860633861
 31
0.0
  0
LINE
  5
341
330
2BC
100
AcDbEntity
  8
Fills_ Pattern_Pen_No__153
  6
Continuous
100
AcDbLine
 10
1539.766441477824
 20
-502.4388860633861
 30
0.0
 11
1541.236690619788
 21
-501.7854420002908
 31
0.0
  0
LINE
  5
342
330
2BC
100
AcDbEntity
  8
Fills_ Pattern_Pen_No__153
  6
Continuous
100
AcDbLine
 10
1489.766441477823
 20
-452.4388860633861
 30
0.0
 11
1491.236690619787
 21
-451.7854420002909
 31
0.0
  0
LINE
  5
343
330
2BC
100
AcDbEntity
  8
Fills_ Pattern_Pen_No__153
  6
Continuous
100
AcDbLine
 10
1539.766441477824
 20
-452.4388860633861
 30
0.0
 11
1541.236690619788
 21
-451.7854420002909
 31
0.0
  0
LINE
  5
344
330
2BC
100
AcDbEntity
  8
Fills_ Pattern_Pen_No__153
  6
Continuous
100
AcDbLine
 10
1489.766441477823
 20
-402.4388860633861
 30
0.0
 11
1491.236690619787
 21
-401.7854420002909
 31
0.0
  0
LINE
  5
345
330
2BC
100
AcDbEntity
  8
Fills_ Pattern_Pen_No__153
  6
Continuous
100
AcDbLine
 10
1539.766441477824
 20
-402.4388860633861
 30
0.0
 11
1541.236690619788
 21
-401.7854420002909
 31
0.0
  0
LINE
  5
346
330
2BC
100
AcDbEntity
  8
Fills_ Pattern_Pen_No__153
  6
Continuous
100
AcDbLine
 10
1541.236690619788
 20
-501.7854420002908
 30
0.0
 11
1541.236690619788
 21
-500.805275905648
 31
0.0
  0
LINE
  5
347
330
2BC
100
AcDbEntity
  8
Fills_ Pattern_Pen_No__153
  6
Continuous
100
AcDbLine
 10
1491.236690619787
 20
-451.7854420002909
 30
0.0
 11
1491.236690619787
 21
-450.805275905648
 31
0.0
  0
LINE
  5
348
330
2BC
100
AcDbEntity
  8
Fills_ Pattern_Pen_No__153
  6
Continuous
100
AcDbLine
 10
1541.236690619788
 20
-451.7854420002909
 30
0.0
 11
1541.236690619788
 21
-450.805275905648
 31
0.0
  0
LINE
  5
349
330
2BC
100
AcDbEntity
  8
Fills_ Pattern_Pen_No__153
  6
Continuous
100
AcDbLine
 10
1491.236690619787
 20
-401.7854420002909
 30
0.0
 11
1491.236690619787
 21
-400.805275905648
 31
0.0
  0
LINE
  5
34A
330
2BC
100
AcDbEntity
  8
Fills_ Pattern_Pen_No__153
  6
Continuous
100
AcDbLine
 10
1541.236690619788
 20
-401.7854420002909
 30
0.0
 11
1541.236690619788
 21
-400.805275905648
 31
0.0
  0
LINE
  5
34B
330
2BC
100
AcDbEntity
  8
Fills_ Pattern_Pen_No__153
  6
Continuous
100
AcDbLine
 10
1557.30567138843
 20
-494.8996932317388
 30
0.0
 11
1557.596333797767
 21
-496.1350084714196
 31
0.0
  0
LINE
  5
34C
330
2BC
100
AcDbEntity
  8
Fills_ Pattern_Pen_No__153
  6
Continuous
100
AcDbLine
 10
1507.30567138843
 20
-444.8996932317388
 30
0.0
 11
1507.596333797767
 21
-446.1350084714196
 31
0.0
  0
LINE
  5
34D
330
2BC
100
AcDbEntity
  8
Fills_ Pattern_Pen_No__153
  6
Continuous
100
AcDbLine
 10
1557.30567138843
 20
-444.8996932317388
 30
0.0
 11
1557.596333797767
 21
-446.1350084714196
 31
0.0
  0
LINE
  5
34E
330
2BC
100
AcDbEntity
  8
Fills_ Pattern_Pen_No__153
  6
Continuous
100
AcDbLine
 10
1507.30567138843
 20
-394.8996932317389
 30
0.0
 11
1507.596333797767
 21
-396.1350084714196
 31
0.0
  0
LINE
  5
34F
330
2BC
100
AcDbEntity
  8
Fills_ Pattern_Pen_No__153
  6
Continuous
100
AcDbLine
 10
1557.30567138843
 20
-394.8996932317389
 30
0.0
 11
1557.596333797767
 21
-396.1350084714196
 31
0.0
  0
LINE
  5
350
330
2BC
100
AcDbEntity
  8
Fills_ Pattern_Pen_No__153
  6
Continuous
100
AcDbLine
 10
1557.596333797767
 20
-496.1350084714196
 30
0.0
 11
1558.104993014106
 21
-495.4083524480779
 31
0.0
  0
LINE
  5
351
330
2BC
100
AcDbEntity
  8
Fills_ Pattern_Pen_No__153
  6
Continuous
100
AcDbLine
 10
1507.596333797767
 20
-446.1350084714196
 30
0.0
 11
1508.104993014106
 21
-445.4083524480779
 31
0.0
  0
LINE
  5
352
330
2BC
100
AcDbEntity
  8
Fills_ Pattern_Pen_No__153
  6
Continuous
100
AcDbLine
 10
1557.596333797767
 20
-446.1350084714196
 30
0.0
 11
1558.104993014106
 21
-445.4083524480779
 31
0.0
  0
LINE
  5
353
330
2BC
100
AcDbEntity
  8
Fills_ Pattern_Pen_No__153
  6
Continuous
100
AcDbLine
 10
1507.596333797767
 20
-396.1350084714196
 30
0.0
 11
1508.104993014106
 21
-395.408352448078
 31
0.0
  0
LINE
  5
354
330
2BC
100
AcDbEntity
  8
Fills_ Pattern_Pen_No__153
  6
Continuous
100
AcDbLine
 10
1557.596333797767
 20
-396.1350084714196
 30
0.0
 11
1558.104993014106
 21
-395.408352448078
 31
0.0
  0
LINE
  5
355
330
2BC
100
AcDbEntity
  8
Fills_ Pattern_Pen_No__153
  6
Continuous
100
AcDbLine
 10
1558.104993014106
 20
-495.4083524480779
 30
0.0
 11
1557.814330604769
 21
-495.1903556410754
 31
0.0
  0
LINE
  5
356
330
2BC
100
AcDbEntity
  8
Fills_ Pattern_Pen_No__153
  6
Continuous
100
AcDbLine
 10
1508.104993014106
 20
-445.4083524480779
 30
0.0
 11
1507.814330604769
 21
-445.1903556410754
 31
0.0
  0
LINE
  5
357
330
2BC
100
AcDbEntity
  8
Fills_ Pattern_Pen_No__153
  6
Continuous
100
AcDbLine
 10
1558.104993014106
 20
-445.4083524480779
 30
0.0
 11
1557.814330604769
 21
-445.1903556410754
 31
0.0
  0
LINE
  5
358
330
2BC
100
AcDbEntity
  8
Fills_ Pattern_Pen_No__153
  6
Continuous
100
AcDbLine
 10
1508.104993014106
 20
-395.408352448078
 30
0.0
 11
1507.814330604769
 21
-395.1903556410755
 31
0.0
  0
LINE
  5
359
330
2BC
100
AcDbEntity
  8
Fills_ Pattern_Pen_No__153
  6
Continuous
100
AcDbLine
 10
1558.104993014106
 20
-395.408352448078
 30
0.0
 11
1557.814330604769
 21
-395.1903556410755
 31
0.0
  0
LINE
  5
35A
330
2BC
100
AcDbEntity
  8
Fills_ Pattern_Pen_No__153
  6
Continuous
100
AcDbLine
 10
1557.814330604769
 20
-495.1903556410754
 30
0.0
 11
1557.30567138843
 21
-494.8996932317388
 31
0.0
  0
LINE
  5
35B
330
2BC
100
AcDbEntity
  8
Fills_ Pattern_Pen_No__153
  6
Continuous
100
AcDbLine
 10
1507.814330604769
 20
-445.1903556410754
 30
0.0
 11
1507.30567138843
 21
-444.8996932317388
 31
0.0
  0
LINE
  5
35C
330
2BC
100
AcDbEntity
  8
Fills_ Pattern_Pen_No__153
  6
Continuous
100
AcDbLine
 10
1557.814330604769
 20
-445.1903556410754
 30
0.0
 11
1557.30567138843
 21
-444.8996932317388
 31
0.0
  0
LINE
  5
35D
330
2BC
100
AcDbEntity
  8
Fills_ Pattern_Pen_No__153
  6
Continuous
100
AcDbLine
 10
1507.814330604769
 20
-395.1903556410755
 30
0.0
 11
1507.30567138843
 21
-394.8996932317389
 31
0.0
  0
LINE
  5
35E
330
2BC
100
AcDbEntity
  8
Fills_ Pattern_Pen_No__153
  6
Continuous
100
AcDbLine
 10
1557.814330604769
 20
-395.1903556410755
 30
0.0
 11
1557.30567138843
 21
-394.8996932317389
 31
0.0
  0
LINE
  5
35F
330
2BC
100
AcDbEntity
  8
Fills_ Pattern_Pen_No__153
  6
Continuous
100
AcDbLine
 10
1535.717921901087
 20
-508.4215608599904
 30
0.0
 11
1536.081249912758
 21
-509.4388792926687
 31
0.0
  0
LINE
  5
360
330
2BC
100
AcDbEntity
  8
Fills_ Pattern_Pen_No__153
  6
Continuous
100
AcDbLine
 10
1535.717921901087
 20
-458.4215608599904
 30
0.0
 11
1536.081249912758
 21
-459.4388792926687
 31
0.0
  0
LINE
  5
361
330
2BC
100
AcDbEntity
  8
Fills_ Pattern_Pen_No__153
  6
Continuous
100
AcDbLine
 10
1485.717921901087
 20
-408.4215608599904
 30
0.0
 11
1486.081249912758
 21
-409.4388792926687
 31
0.0
  0
LINE
  5
362
330
2BC
100
AcDbEntity
  8
Fills_ Pattern_Pen_No__153
  6
Continuous
100
AcDbLine
 10
1535.717921901087
 20
-408.4215608599904
 30
0.0
 11
1536.081249912758
 21
-409.4388792926687
 31
0.0
  0
LINE
  5
363
330
2BC
100
AcDbEntity
  8
Fills_ Pattern_Pen_No__153
  6
Continuous
100
AcDbLine
 10
1485.717921901087
 20
-358.4215608599905
 30
0.0
 11
1486.081249912758
 21
-359.4388792926688
 31
0.0
  0
LINE
  5
364
330
2BC
100
AcDbEntity
  8
Fills_ Pattern_Pen_No__153
  6
Continuous
100
AcDbLine
 10
1535.717921901087
 20
-358.4215608599905
 30
0.0
 11
1536.081249912758
 21
-359.4388792926688
 31
0.0
  0
LINE
  5
365
330
2BC
100
AcDbEntity
  8
Fills_ Pattern_Pen_No__153
  6
Continuous
100
AcDbLine
 10
1536.081249912758
 20
-509.4388792926687
 30
0.0
 11
1536.371912322094
 21
-508.7848888716613
 31
0.0
  0
LINE
  5
366
330
2BC
100
AcDbEntity
  8
Fills_ Pattern_Pen_No__153
  6
Continuous
100
AcDbLine
 10
1536.081249912758
 20
-459.4388792926687
 30
0.0
 11
1536.371912322094
 21
-458.7848888716612
 31
0.0
  0
LINE
  5
367
330
2BC
100
AcDbEntity
  8
Fills_ Pattern_Pen_No__153
  6
Continuous
100
AcDbLine
 10
1486.081249912758
 20
-409.4388792926687
 30
0.0
 11
1486.371912322094
 21
-408.7848888716612
 31
0.0
  0
LINE
  5
368
330
2BC
100
AcDbEntity
  8
Fills_ Pattern_Pen_No__153
  6
Continuous
100
AcDbLine
 10
1536.081249912758
 20
-409.4388792926687
 30
0.0
 11
1536.371912322094
 21
-408.7848888716612
 31
0.0
  0
LINE
  5
369
330
2BC
100
AcDbEntity
  8
Fills_ Pattern_Pen_No__153
  6
Continuous
100
AcDbLine
 10
1486.081249912758
 20
-359.4388792926688
 30
0.0
 11
1486.371912322094
 21
-358.7848888716613
 31
0.0
  0
LINE
  5
36A
330
2BC
100
AcDbEntity
  8
Fills_ Pattern_Pen_No__153
  6
Continuous
100
AcDbLine
 10
1536.081249912758
 20
-359.4388792926688
 30
0.0
 11
1536.371912322094
 21
-358.7848888716613
 31
0.0
  0
LINE
  5
36B
330
2BC
100
AcDbEntity
  8
Fills_ Pattern_Pen_No__153
  6
Continuous
100
AcDbLine
 10
1536.371912322094
 20
-508.7848888716613
 30
0.0
 11
1535.717921901087
 21
-508.4215608599904
 31
0.0
  0
LINE
  5
36C
330
2BC
100
AcDbEntity
  8
Fills_ Pattern_Pen_No__153
  6
Continuous
100
AcDbLine
 10
1536.371912322094
 20
-458.7848888716612
 30
0.0
 11
1535.717921901087
 21
-458.4215608599904
 31
0.0
  0
LINE
  5
36D
330
2BC
100
AcDbEntity
  8
Fills_ Pattern_Pen_No__153
  6
Continuous
100
AcDbLine
 10
1486.371912322094
 20
-408.7848888716612
 30
0.0
 11
1485.717921901087
 21
-408.4215608599904
 31
0.0
  0
LINE
  5
36E
330
2BC
100
AcDbEntity
  8
Fills_ Pattern_Pen_No__153
  6
Continuous
100
AcDbLine
 10
1536.371912322094
 20
-408.7848888716612
 30
0.0
 11
1535.717921901087
 21
-408.4215608599904
 31
0.0
  0
LINE
  5
36F
330
2BC
100
AcDbEntity
  8
Fills_ Pattern_Pen_No__153
  6
Continuous
100
AcDbLine
 10
1486.371912322094
 20
-358.7848888716613
 30
0.0
 11
1485.717921901087
 21
-358.4215608599905
 31
0.0
  0
LINE
  5
370
330
2BC
100
AcDbEntity
  8
Fills_ Pattern_Pen_No__153
  6
Continuous
100
AcDbLine
 10
1536.371912322094
 20
-358.7848888716613
 30
0.0
 11
1535.717921901087
 21
-358.4215608599905
 31
0.0
  0
LINE
  5
371
330
2BC
100
AcDbEntity
  8
Fills_ Pattern_Pen_No__153
  6
Continuous
100
AcDbLine
 10
1566.907428442714
 20
-500.0
 30
0.0
 11
1567.560872505809
 21
-501.166585456858
 31
0.0
  0
LINE
  5
372
330
2BC
100
AcDbEntity
  8
Fills_ Pattern_Pen_No__153
  6
Continuous
100
AcDbLine
 10
1516.907428442714
 20
-449.9999999999999
 30
0.0
 11
1517.560872505809
 21
-451.1665854568579
 31
0.0
  0
LINE
  5
373
330
2BC
100
AcDbEntity
  8
Fills_ Pattern_Pen_No__153
  6
Continuous
100
AcDbLine
 10
1566.907428442714
 20
-449.9999999999999
 30
0.0
 11
1567.560872505809
 21
-451.1665854568579
 31
0.0
  0
LINE
  5
374
330
2BC
100
AcDbEntity
  8
Fills_ Pattern_Pen_No__153
  6
Continuous
100
AcDbLine
 10
1466.907428442714
 20
-399.9999999999999
 30
0.0
 11
1467.560872505809
 21
-401.1665854568579
 31
0.0
  0
LINE
  5
375
330
2BC
100
AcDbEntity
  8
Fills_ Pattern_Pen_No__153
  6
Continuous
100
AcDbLine
 10
1516.907428442714
 20
-399.9999999999999
 30
0.0
 11
1517.560872505809
 21
-401.1665854568579
 31
0.0
  0
LINE
  5
376
330
2BC
100
AcDbEntity
  8
Fills_ Pattern_Pen_No__153
  6
Continuous
100
AcDbLine
 10
1566.907428442714
 20
-399.9999999999999
 30
0.0
 11
1567.560872505809
 21
-401.1665854568579
 31
0.0
  0
LINE
  5
377
330
2BC
100
AcDbEntity
  8
Fills_ Pattern_Pen_No__153
  6
Continuous
100
AcDbLine
 10
1567.560872505809
 20
-501.166585456858
 30
0.0
 11
1568.867760631999
 21
-501.0032244410842
 31
0.0
  0
LINE
  5
378
330
2BC
100
AcDbEntity
  8
Fills_ Pattern_Pen_No__153
  6
Continuous
100
AcDbLine
 10
1517.560872505809
 20
-451.1665854568579
 30
0.0
 11
1518.867760631999
 21
-451.0032244410842
 31
0.0
  0
LINE
  5
379
330
2BC
100
AcDbEntity
  8
Fills_ Pattern_Pen_No__153
  6
Continuous
100
AcDbLine
 10
1567.560872505809
 20
-451.1665854568579
 30
0.0
 11
1568.867760631999
 21
-451.0032244410842
 31
0.0
  0
LINE
  5
37A
330
2BC
100
AcDbEntity
  8
Fills_ Pattern_Pen_No__153
  6
Continuous
100
AcDbLine
 10
1467.560872505809
 20
-401.1665854568579
 30
0.0
 11
1468.867760631999
 21
-401.0032244410841
 31
0.0
  0
LINE
  5
37B
330
2BC
100
AcDbEntity
  8
Fills_ Pattern_Pen_No__153
  6
Continuous
100
AcDbLine
 10
1517.560872505809
 20
-401.1665854568579
 30
0.0
 11
1518.867760631999
 21
-401.0032244410841
 31
0.0
  0
LINE
  5
37C
330
2BC
100
AcDbEntity
  8
Fills_ Pattern_Pen_No__153
  6
Continuous
100
AcDbLine
 10
1567.560872505809
 20
-401.1665854568579
 30
0.0
 11
1568.867760631999
 21
-401.0032244410841
 31
0.0
  0
LINE
  5
37D
330
2BC
100
AcDbEntity
  8
Fills_ Pattern_Pen_No__153
  6
Continuous
100
AcDbLine
 10
1568.867760631999
 20
-501.0032244410842
 30
0.0
 11
1569.521204695095
 21
-500.0
 31
0.0
  0
LINE
  5
37E
330
2BC
100
AcDbEntity
  8
Fills_ Pattern_Pen_No__153
  6
Continuous
100
AcDbLine
 10
1518.867760631999
 20
-451.0032244410842
 30
0.0
 11
1519.521204695095
 21
-449.9999999999999
 31
0.0
  0
LINE
  5
37F
330
2BC
100
AcDbEntity
  8
Fills_ Pattern_Pen_No__153
  6
Continuous
100
AcDbLine
 10
1568.867760631999
 20
-451.0032244410842
 30
0.0
 11
1569.521204695095
 21
-449.9999999999999
 31
0.0
  0
LINE
  5
380
330
2BC
100
AcDbEntity
  8
Fills_ Pattern_Pen_No__153
  6
Continuous
100
AcDbLine
 10
1468.867760631999
 20
-401.0032244410841
 30
0.0
 11
1469.521204695094
 21
-399.9999999999999
 31
0.0
  0
LINE
  5
381
330
2BC
100
AcDbEntity
  8
Fills_ Pattern_Pen_No__153
  6
Continuous
100
AcDbLine
 10
1518.867760631999
 20
-401.0032244410841
 30
0.0
 11
1519.521204695095
 21
-399.9999999999999
 31
0.0
  0
LINE
  5
382
330
2BC
100
AcDbEntity
  8
Fills_ Pattern_Pen_No__153
  6
Continuous
100
AcDbLine
 10
1568.867760631999
 20
-401.0032244410841
 30
0.0
 11
1569.521204695095
 21
-399.9999999999999
 31
0.0
  0
LINE
  5
383
330
2BC
100
AcDbEntity
  8
Fills_ Pattern_Pen_No__153
  6
Continuous
100
AcDbLine
 10
1545.108710484281
 20
-478.7404485888904
 30
0.0
 11
1544.743224223259
 21
-482.0298249380857
 31
0.0
  0
LINE
  5
384
330
2BC
100
AcDbEntity
  8
Fills_ Pattern_Pen_No__153
  6
Continuous
100
AcDbLine
 10
1495.108710484281
 20
-428.7404485888903
 30
0.0
 11
1494.743224223259
 21
-432.0298249380857
 31
0.0
  0
LINE
  5
385
330
2BC
100
AcDbEntity
  8
Fills_ Pattern_Pen_No__153
  6
Continuous
100
AcDbLine
 10
1545.108710484281
 20
-428.7404485888903
 30
0.0
 11
1544.743224223259
 21
-432.0298249380857
 31
0.0
  0
LINE
  5
386
330
2BC
100
AcDbEntity
  8
Fills_ Pattern_Pen_No__153
  6
Continuous
100
AcDbLine
 10
1495.108710484281
 20
-378.7404485888905
 30
0.0
 11
1494.743224223259
 21
-382.0298249380858
 31
0.0
  0
LINE
  5
387
330
2BC
100
AcDbEntity
  8
Fills_ Pattern_Pen_No__153
  6
Continuous
100
AcDbLine
 10
1545.108710484281
 20
-378.7404485888905
 30
0.0
 11
1544.743224223259
 21
-382.0298249380858
 31
0.0
  0
LINE
  5
388
330
2BC
100
AcDbEntity
  8
Fills_ Pattern_Pen_No__153
  6
Continuous
100
AcDbLine
 10
1544.743224223259
 20
-482.0298249380857
 30
0.0
 11
1546.022426136835
 21
-479.8369073719555
 31
0.0
  0
LINE
  5
389
330
2BC
100
AcDbEntity
  8
Fills_ Pattern_Pen_No__153
  6
Continuous
100
AcDbLine
 10
1494.743224223259
 20
-432.0298249380857
 30
0.0
 11
1496.022426136835
 21
-429.8369073719555
 31
0.0
  0
LINE
  5
38A
330
2BC
100
AcDbEntity
  8
Fills_ Pattern_Pen_No__153
  6
Continuous
100
AcDbLine
 10
1544.743224223259
 20
-432.0298249380857
 30
0.0
 11
1546.022426136835
 21
-429.8369073719555
 31
0.0
  0
LINE
  5
38B
330
2BC
100
AcDbEntity
  8
Fills_ Pattern_Pen_No__153
  6
Continuous
100
AcDbLine
 10
1494.743224223259
 20
-382.0298249380858
 30
0.0
 11
1496.022426136835
 21
-379.8369073719555
 31
0.0
  0
LINE
  5
38C
330
2BC
100
AcDbEntity
  8
Fills_ Pattern_Pen_No__153
  6
Continuous
100
AcDbLine
 10
1544.743224223259
 20
-382.0298249380858
 30
0.0
 11
1546.022426136835
 21
-379.8369073719555
 31
0.0
  0
LINE
  5
38D
330
2BC
100
AcDbEntity
  8
Fills_ Pattern_Pen_No__153
  6
Continuous
100
AcDbLine
 10
1546.022426136835
 20
-479.8369073719555
 30
0.0
 11
1545.108710484281
 21
-478.7404485888904
 31
0.0
  0
LINE
  5
38E
330
2BC
100
AcDbEntity
  8
Fills_ Pattern_Pen_No__153
  6
Continuous
100
AcDbLine
 10
1496.022426136835
 20
-429.8369073719555
 30
0.0
 11
1495.108710484281
 21
-428.7404485888903
 31
0.0
  0
LINE
  5
38F
330
2BC
100
AcDbEntity
  8
Fills_ Pattern_Pen_No__153
  6
Continuous
100
AcDbLine
 10
1546.022426136835
 20
-429.8369073719555
 30
0.0
 11
1545.108710484281
 21
-428.7404485888903
 31
0.0
  0
LINE
  5
390
330
2BC
100
AcDbEntity
  8
Fills_ Pattern_Pen_No__153
  6
Continuous
100
AcDbLine
 10
1496.022426136835
 20
-379.8369073719555
 30
0.0
 11
1495.108710484281
 21
-378.7404485888905
 31
0.0
  0
LINE
  5
391
330
2BC
100
AcDbEntity
  8
Fills_ Pattern_Pen_No__153
  6
Continuous
100
AcDbLine
 10
1546.022426136835
 20
-379.8369073719555
 30
0.0
 11
1545.108710484281
 21
-378.7404485888905
 31
0.0
  0
LINE
  5
392
330
2BC
100
AcDbEntity
  8
Fills_ Pattern_Pen_No__153
  6
Continuous
100
AcDbLine
 10
1547.96098281248
 20
-490.8731129625812
 30
0.0
 11
1548.509212204013
 21
-492.335058006668
 31
0.0
  0
LINE
  5
393
330
2BC
100
AcDbEntity
  8
Fills_ Pattern_Pen_No__153
  6
Continuous
100
AcDbLine
 10
1497.96098281248
 20
-440.8731129625812
 30
0.0
 11
1498.509212204013
 21
-442.3350580066681
 31
0.0
  0
LINE
  5
394
330
2BC
100
AcDbEntity
  8
Fills_ Pattern_Pen_No__153
  6
Continuous
100
AcDbLine
 10
1547.96098281248
 20
-440.8731129625812
 30
0.0
 11
1548.509212204013
 21
-442.3350580066681
 31
0.0
  0
LINE
  5
395
330
2BC
100
AcDbEntity
  8
Fills_ Pattern_Pen_No__153
  6
Continuous
100
AcDbLine
 10
1497.96098281248
 20
-390.8731129625813
 30
0.0
 11
1498.509212204013
 21
-392.3350580066681
 31
0.0
  0
LINE
  5
396
330
2BC
100
AcDbEntity
  8
Fills_ Pattern_Pen_No__153
  6
Continuous
100
AcDbLine
 10
1547.96098281248
 20
-390.8731129625813
 30
0.0
 11
1548.509212204013
 21
-392.3350580066681
 31
0.0
  0
LINE
  5
397
330
2BC
100
AcDbEntity
  8
Fills_ Pattern_Pen_No__153
  6
Continuous
100
AcDbLine
 10
1548.509212204013
 20
-492.335058006668
 30
0.0
 11
1549.788414117589
 21
-490.8731129625812
 31
0.0
  0
LINE
  5
398
330
2BC
100
AcDbEntity
  8
Fills_ Pattern_Pen_No__153
  6
Continuous
100
AcDbLine
 10
1498.509212204013
 20
-442.3350580066681
 30
0.0
 11
1499.788414117588
 21
-440.8731129625812
 31
0.0
  0
LINE
  5
399
330
2BC
100
AcDbEntity
  8
Fills_ Pattern_Pen_No__153
  6
Continuous
100
AcDbLine
 10
1548.509212204013
 20
-442.3350580066681
 30
0.0
 11
1549.788414117589
 21
-440.8731129625812
 31
0.0
  0
LINE
  5
39A
330
2BC
100
AcDbEntity
  8
Fills_ Pattern_Pen_No__153
  6
Continuous
100
AcDbLine
 10
1498.509212204013
 20
-392.3350580066681
 30
0.0
 11
1499.788414117588
 21
-390.8731129625813
 31
0.0
  0
LINE
  5
39B
330
2BC
100
AcDbEntity
  8
Fills_ Pattern_Pen_No__153
  6
Continuous
100
AcDbLine
 10
1548.509212204013
 20
-392.3350580066681
 30
0.0
 11
1549.788414117589
 21
-390.8731129625813
 31
0.0
  0
LINE
  5
39C
330
2BC
100
AcDbEntity
  8
Fills_ Pattern_Pen_No__153
  6
Continuous
100
AcDbLine
 10
1549.788414117589
 20
-490.8731129625812
 30
0.0
 11
1547.96098281248
 21
-490.8731129625812
 31
0.0
  0
LINE
  5
39D
330
2BC
100
AcDbEntity
  8
Fills_ Pattern_Pen_No__153
  6
Continuous
100
AcDbLine
 10
1499.788414117588
 20
-440.8731129625812
 30
0.0
 11
1497.96098281248
 21
-440.8731129625812
 31
0.0
  0
LINE
  5
39E
330
2BC
100
AcDbEntity
  8
Fills_ Pattern_Pen_No__153
  6
Continuous
100
AcDbLine
 10
1549.788414117589
 20
-440.8731129625812
 30
0.0
 11
1547.96098281248
 21
-440.8731129625812
 31
0.0
  0
LINE
  5
39F
330
2BC
100
AcDbEntity
  8
Fills_ Pattern_Pen_No__153
  6
Continuous
100
AcDbLine
 10
1499.788414117588
 20
-390.8731129625813
 30
0.0
 11
1497.96098281248
 21
-390.8731129625813
 31
0.0
  0
LINE
  5
3A0
330
2BC
100
AcDbEntity
  8
Fills_ Pattern_Pen_No__153
  6
Continuous
100
AcDbLine
 10
1549.788414117589
 20
-390.8731129625813
 30
0.0
 11
1547.96098281248
 21
-390.8731129625813
 31
0.0
  0
LINE
  5
3A1
330
2BC
100
AcDbEntity
  8
Fills_ Pattern_Pen_No__153
  6
Continuous
100
AcDbLine
 10
1529.138440369862
 20
-484.0399993737052
 30
0.0
 11
1528.407467847818
 21
-485.5019444177919
 31
0.0
  0
LINE
  5
3A2
330
2BC
100
AcDbEntity
  8
Fills_ Pattern_Pen_No__153
  6
Continuous
100
AcDbLine
 10
1579.138440369862
 20
-484.0399993737052
 30
0.0
 11
1578.407467847819
 21
-485.5019444177919
 31
0.0
  0
LINE
  5
3A3
330
2BC
100
AcDbEntity
  8
Fills_ Pattern_Pen_No__153
  6
Continuous
100
AcDbLine
 10
1529.138440369862
 20
-434.0399993737052
 30
0.0
 11
1528.407467847818
 21
-435.5019444177919
 31
0.0
  0
LINE
  5
3A4
330
2BC
100
AcDbEntity
  8
Fills_ Pattern_Pen_No__153
  6
Continuous
100
AcDbLine
 10
1579.138440369862
 20
-434.0399993737052
 30
0.0
 11
1578.407467847819
 21
-435.5019444177919
 31
0.0
  0
LINE
  5
3A5
330
2BC
100
AcDbEntity
  8
Fills_ Pattern_Pen_No__153
  6
Continuous
100
AcDbLine
 10
1479.138440369862
 20
-384.0399993737052
 30
0.0
 11
1478.407467847819
 21
-385.501944417792
 31
0.0
  0
LINE
  5
3A6
330
2BC
100
AcDbEntity
  8
Fills_ Pattern_Pen_No__153
  6
Continuous
100
AcDbLine
 10
1529.138440369862
 20
-384.0399993737052
 30
0.0
 11
1528.407467847818
 21
-385.501944417792
 31
0.0
  0
LINE
  5
3A7
330
2BC
100
AcDbEntity
  8
Fills_ Pattern_Pen_No__153
  6
Continuous
100
AcDbLine
 10
1579.138440369862
 20
-384.0399993737052
 30
0.0
 11
1578.407467847819
 21
-385.501944417792
 31
0.0
  0
LINE
  5
3A8
330
2BC
100
AcDbEntity
  8
Fills_ Pattern_Pen_No__153
  6
Continuous
100
AcDbLine
 10
1528.407467847818
 20
-485.5019444177919
 30
0.0
 11
1530.052156022416
 21
-485.1364581567702
 31
0.0
  0
LINE
  5
3A9
330
2BC
100
AcDbEntity
  8
Fills_ Pattern_Pen_No__153
  6
Continuous
100
AcDbLine
 10
1578.407467847819
 20
-485.5019444177919
 30
0.0
 11
1580.052156022416
 21
-485.1364581567702
 31
0.0
  0
LINE
  5
3AA
330
2BC
100
AcDbEntity
  8
Fills_ Pattern_Pen_No__153
  6
Continuous
100
AcDbLine
 10
1528.407467847818
 20
-435.5019444177919
 30
0.0
 11
1530.052156022416
 21
-435.1364581567702
 31
0.0
  0
LINE
  5
3AB
330
2BC
100
AcDbEntity
  8
Fills_ Pattern_Pen_No__153
  6
Continuous
100
AcDbLine
 10
1578.407467847819
 20
-435.5019444177919
 30
0.0
 11
1580.052156022416
 21
-435.1364581567702
 31
0.0
  0
LINE
  5
3AC
330
2BC
100
AcDbEntity
  8
Fills_ Pattern_Pen_No__153
  6
Continuous
100
AcDbLine
 10
1478.407467847819
 20
-385.501944417792
 30
0.0
 11
1480.052156022416
 21
-385.1364581567704
 31
0.0
  0
LINE
  5
3AD
330
2BC
100
AcDbEntity
  8
Fills_ Pattern_Pen_No__153
  6
Continuous
100
AcDbLine
 10
1528.407467847818
 20
-385.501944417792
 30
0.0
 11
1530.052156022416
 21
-385.1364581567704
 31
0.0
  0
LINE
  5
3AE
330
2BC
100
AcDbEntity
  8
Fills_ Pattern_Pen_No__153
  6
Continuous
100
AcDbLine
 10
1578.407467847819
 20
-385.501944417792
 30
0.0
 11
1580.052156022416
 21
-385.1364581567704
 31
0.0
  0
LINE
  5
3AF
330
2BC
100
AcDbEntity
  8
Fills_ Pattern_Pen_No__153
  6
Continuous
100
AcDbLine
 10
1530.052156022416
 20
-485.1364581567702
 30
0.0
 11
1529.138440369862
 21
-484.0399993737052
 31
0.0
  0
LINE
  5
3B0
330
2BC
100
AcDbEntity
  8
Fills_ Pattern_Pen_No__153
  6
Continuous
100
AcDbLine
 10
1580.052156022416
 20
-485.1364581567702
 30
0.0
 11
1579.138440369862
 21
-484.0399993737052
 31
0.0
  0
LINE
  5
3B1
330
2BC
100
AcDbEntity
  8
Fills_ Pattern_Pen_No__153
  6
Continuous
100
AcDbLine
 10
1530.052156022416
 20
-435.1364581567702
 30
0.0
 11
1529.138440369862
 21
-434.0399993737052
 31
0.0
  0
LINE
  5
3B2
330
2BC
100
AcDbEntity
  8
Fills_ Pattern_Pen_No__153
  6
Continuous
100
AcDbLine
 10
1580.052156022416
 20
-435.1364581567702
 30
0.0
 11
1579.138440369862
 21
-434.0399993737052
 31
0.0
  0
LINE
  5
3B3
330
2BC
100
AcDbEntity
  8
Fills_ Pattern_Pen_No__153
  6
Continuous
100
AcDbLine
 10
1480.052156022416
 20
-385.1364581567704
 30
0.0
 11
1479.138440369862
 21
-384.0399993737052
 31
0.0
  0
LINE
  5
3B4
330
2BC
100
AcDbEntity
  8
Fills_ Pattern_Pen_No__153
  6
Continuous
100
AcDbLine
 10
1530.052156022416
 20
-385.1364581567704
 30
0.0
 11
1529.138440369862
 21
-384.0399993737052
 31
0.0
  0
LINE
  5
3B5
330
2BC
100
AcDbEntity
  8
Fills_ Pattern_Pen_No__153
  6
Continuous
100
AcDbLine
 10
1580.052156022416
 20
-385.1364581567704
 30
0.0
 11
1579.138440369862
 21
-384.0399993737052
 31
0.0
  0
LINE
  5
3B6
330
2BC
100
AcDbEntity
  8
Fills_ Pattern_Pen_No__153
  6
Continuous
100
AcDbLine
 10
1520.72717186799
 20
-483.5770023930034
 30
0.0
 11
1520.884219741955
 21
-483.8387488496114
 31
0.0
  0
LINE
  5
3B7
330
2BC
100
AcDbEntity
  8
Fills_ Pattern_Pen_No__153
  6
Continuous
100
AcDbLine
 10
1570.727171867991
 20
-483.5770023930034
 30
0.0
 11
1570.884219741955
 21
-483.8387488496114
 31
0.0
  0
LINE
  5
3B8
330
2BC
100
AcDbEntity
  8
Fills_ Pattern_Pen_No__153
  6
Continuous
100
AcDbLine
 10
1520.72717186799
 20
-433.5770023930035
 30
0.0
 11
1520.884219741955
 21
-433.8387488496114
 31
0.0
  0
LINE
  5
3B9
330
2BC
100
AcDbEntity
  8
Fills_ Pattern_Pen_No__153
  6
Continuous
100
AcDbLine
 10
1570.727171867991
 20
-433.5770023930035
 30
0.0
 11
1570.884219741955
 21
-433.8387488496114
 31
0.0
  0
LINE
  5
3BA
330
2BC
100
AcDbEntity
  8
Fills_ Pattern_Pen_No__153
  6
Continuous
100
AcDbLine
 10
1470.72717186799
 20
-383.5770023930035
 30
0.0
 11
1470.884219741955
 21
-383.8387488496114
 31
0.0
  0
LINE
  5
3BB
330
2BC
100
AcDbEntity
  8
Fills_ Pattern_Pen_No__153
  6
Continuous
100
AcDbLine
 10
1520.72717186799
 20
-383.5770023930035
 30
0.0
 11
1520.884219741955
 21
-383.8387488496114
 31
0.0
  0
LINE
  5
3BC
330
2BC
100
AcDbEntity
  8
Fills_ Pattern_Pen_No__153
  6
Continuous
100
AcDbLine
 10
1570.727171867991
 20
-383.5770023930035
 30
0.0
 11
1570.884219741955
 21
-383.8387488496114
 31
0.0
  0
LINE
  5
3BD
330
2BC
100
AcDbEntity
  8
Fills_ Pattern_Pen_No__153
  6
Continuous
100
AcDbLine
 10
1543.342065718912
 20
-474.9917186162647
 30
0.0
 11
1543.027969970983
 21
-475.3581636555157
 31
0.0
  0
LINE
  5
3BE
330
2BC
100
AcDbEntity
  8
Fills_ Pattern_Pen_No__153
  6
Continuous
100
AcDbLine
 10
1493.342065718912
 20
-424.9917186162647
 30
0.0
 11
1493.027969970983
 21
-425.3581636555158
 31
0.0
  0
LINE
  5
3BF
330
2BC
100
AcDbEntity
  8
Fills_ Pattern_Pen_No__153
  6
Continuous
100
AcDbLine
 10
1543.342065718912
 20
-424.9917186162647
 30
0.0
 11
1543.027969970983
 21
-425.3581636555158
 31
0.0
  0
LINE
  5
3C0
330
2BC
100
AcDbEntity
  8
Fills_ Pattern_Pen_No__153
  6
Continuous
100
AcDbLine
 10
1493.342065718912
 20
-374.9917186162647
 30
0.0
 11
1493.027969970983
 21
-375.3581636555158
 31
0.0
  0
LINE
  5
3C1
330
2BC
100
AcDbEntity
  8
Fills_ Pattern_Pen_No__153
  6
Continuous
100
AcDbLine
 10
1543.342065718912
 20
-374.9917186162647
 30
0.0
 11
1543.027969970983
 21
-375.3581636555158
 31
0.0
  0
LINE
  5
3C2
330
2BC
100
AcDbEntity
  8
Fills_ Pattern_Pen_No__153
  6
Continuous
100
AcDbLine
 10
1527.337540222351
 20
-493.5606760218331
 30
0.0
 11
1527.44694564917
 21
-494.2171085827471
 31
0.0
  0
LINE
  5
3C3
330
2BC
100
AcDbEntity
  8
Fills_ Pattern_Pen_No__153
  6
Continuous
100
AcDbLine
 10
1577.337540222351
 20
-493.5606760218331
 30
0.0
 11
1577.44694564917
 21
-494.2171085827471
 31
0.0
  0
LINE
  5
3C4
330
2BC
100
AcDbEntity
  8
Fills_ Pattern_Pen_No__153
  6
Continuous
100
AcDbLine
 10
1527.337540222351
 20
-443.5606760218332
 30
0.0
 11
1527.44694564917
 21
-444.2171085827471
 31
0.0
  0
LINE
  5
3C5
330
2BC
100
AcDbEntity
  8
Fills_ Pattern_Pen_No__153
  6
Continuous
100
AcDbLine
 10
1577.337540222351
 20
-443.5606760218332
 30
0.0
 11
1577.44694564917
 21
-444.2171085827471
 31
0.0
  0
LINE
  5
3C6
330
2BC
100
AcDbEntity
  8
Fills_ Pattern_Pen_No__153
  6
Continuous
100
AcDbLine
 10
1477.337540222351
 20
-393.5606760218332
 30
0.0
 11
1477.44694564917
 21
-394.2171085827472
 31
0.0
  0
LINE
  5
3C7
330
2BC
100
AcDbEntity
  8
Fills_ Pattern_Pen_No__153
  6
Continuous
100
AcDbLine
 10
1527.337540222351
 20
-393.5606760218332
 30
0.0
 11
1527.44694564917
 21
-394.2171085827472
 31
0.0
  0
LINE
  5
3C8
330
2BC
100
AcDbEntity
  8
Fills_ Pattern_Pen_No__153
  6
Continuous
100
AcDbLine
 10
1577.337540222351
 20
-393.5606760218332
 30
0.0
 11
1577.44694564917
 21
-394.2171085827472
 31
0.0
  0
LINE
  5
3C9
330
2BC
100
AcDbEntity
  8
Fills_ Pattern_Pen_No__153
  6
Continuous
100
AcDbLine
 10
1542.327803640272
 20
-482.6201333399334
 30
0.0
 11
1542.54661449391
 21
-483.1671604740283
 31
0.0
  0
LINE
  5
3CA
330
2BC
100
AcDbEntity
  8
Fills_ Pattern_Pen_No__153
  6
Continuous
100
AcDbLine
 10
1492.327803640272
 20
-432.6201333399333
 30
0.0
 11
1492.54661449391
 21
-433.1671604740283
 31
0.0
  0
LINE
  5
3CB
330
2BC
100
AcDbEntity
  8
Fills_ Pattern_Pen_No__153
  6
Continuous
100
AcDbLine
 10
1542.327803640272
 20
-432.6201333399333
 30
0.0
 11
1542.54661449391
 21
-433.1671604740283
 31
0.0
  0
LINE
  5
3CC
330
2BC
100
AcDbEntity
  8
Fills_ Pattern_Pen_No__153
  6
Continuous
100
AcDbLine
 10
1492.327803640272
 20
-382.6201333399334
 30
0.0
 11
1492.54661449391
 21
-383.1671604740283
 31
0.0
  0
LINE
  5
3CD
330
2BC
100
AcDbEntity
  8
Fills_ Pattern_Pen_No__153
  6
Continuous
100
AcDbLine
 10
1542.327803640272
 20
-382.6201333399334
 30
0.0
 11
1542.54661449391
 21
-383.1671604740283
 31
0.0
  0
LINE
  5
3CE
330
2BC
100
AcDbEntity
  8
Fills_ Pattern_Pen_No__153
  6
Continuous
100
AcDbLine
 10
1515.523474069617
 20
-480.4320248035534
 30
0.0
 11
1515.721333726619
 21
-480.1001348886176
 31
0.0
  0
LINE
  5
3CF
330
2BC
100
AcDbEntity
  8
Fills_ Pattern_Pen_No__153
  6
Continuous
100
AcDbLine
 10
1565.523474069617
 20
-480.4320248035534
 30
0.0
 11
1565.721333726618
 21
-480.1001348886176
 31
0.0
  0
LINE
  5
3D0
330
2BC
100
AcDbEntity
  8
Fills_ Pattern_Pen_No__153
  6
Continuous
100
AcDbLine
 10
1515.523474069617
 20
-430.4320248035534
 30
0.0
 11
1515.721333726619
 21
-430.1001348886177
 31
0.0
  0
LINE
  5
3D1
330
2BC
100
AcDbEntity
  8
Fills_ Pattern_Pen_No__153
  6
Continuous
100
AcDbLine
 10
1565.523474069617
 20
-430.4320248035534
 30
0.0
 11
1565.721333726618
 21
-430.1001348886177
 31
0.0
  0
LINE
  5
3D2
330
2BC
100
AcDbEntity
  8
Fills_ Pattern_Pen_No__153
  6
Continuous
100
AcDbLine
 10
1465.523474069617
 20
-380.4320248035534
 30
0.0
 11
1465.721333726619
 21
-380.1001348886177
 31
0.0
  0
LINE
  5
3D3
330
2BC
100
AcDbEntity
  8
Fills_ Pattern_Pen_No__153
  6
Continuous
100
AcDbLine
 10
1515.523474069617
 20
-380.4320248035534
 30
0.0
 11
1515.721333726619
 21
-380.1001348886177
 31
0.0
  0
LINE
  5
3D4
330
2BC
100
AcDbEntity
  8
Fills_ Pattern_Pen_No__153
  6
Continuous
100
AcDbLine
 10
1565.523474069617
 20
-380.4320248035534
 30
0.0
 11
1565.721333726618
 21
-380.1001348886177
 31
0.0
  0
LINE
  5
3D5
330
2BC
100
AcDbEntity
  8
Fills_ Pattern_Pen_No__153
  6
Continuous
100
AcDbLine
 10
1553.715896250203
 20
-516.9889334341116
 30
0.0
 11
1553.95284567408
 21
-517.1074081460499
 31
0.0
  0
LINE
  5
3D6
330
2BC
100
AcDbEntity
  8
Fills_ Pattern_Pen_No__153
  6
Continuous
100
AcDbLine
 10
1503.715896250203
 20
-466.9889334341116
 30
0.0
 11
1503.95284567408
 21
-467.1074081460499
 31
0.0
  0
LINE
  5
3D7
330
2BC
100
AcDbEntity
  8
Fills_ Pattern_Pen_No__153
  6
Continuous
100
AcDbLine
 10
1553.715896250203
 20
-466.9889334341116
 30
0.0
 11
1553.95284567408
 21
-467.1074081460499
 31
0.0
  0
LINE
  5
3D8
330
2BC
100
AcDbEntity
  8
Fills_ Pattern_Pen_No__153
  6
Continuous
100
AcDbLine
 10
1503.715896250203
 20
-416.9889334341116
 30
0.0
 11
1503.95284567408
 21
-417.1074081460499
 31
0.0
  0
LINE
  5
3D9
330
2BC
100
AcDbEntity
  8
Fills_ Pattern_Pen_No__153
  6
Continuous
100
AcDbLine
 10
1553.715896250203
 20
-416.9889334341116
 30
0.0
 11
1553.95284567408
 21
-417.1074081460499
 31
0.0
  0
LINE
  5
3DA
330
2BC
100
AcDbEntity
  8
Fills_ Pattern_Pen_No__153
  6
Continuous
100
AcDbLine
 10
1453.715896250203
 20
-366.9889334341116
 30
0.0
 11
1453.95284567408
 21
-367.1074081460499
 31
0.0
  0
LINE
  5
3DB
330
2BC
100
AcDbEntity
  8
Fills_ Pattern_Pen_No__153
  6
Continuous
100
AcDbLine
 10
1503.715896250203
 20
-366.9889334341116
 30
0.0
 11
1503.95284567408
 21
-367.1074081460499
 31
0.0
  0
LINE
  5
3DC
330
2BC
100
AcDbEntity
  8
Fills_ Pattern_Pen_No__153
  6
Continuous
100
AcDbLine
 10
1553.715896250203
 20
-366.9889334341116
 30
0.0
 11
1553.95284567408
 21
-367.1074081460499
 31
0.0
  0
LINE
  5
3DD
330
2BC
100
AcDbEntity
  8
Fills_ Pattern_Pen_No__153
  6
Continuous
100
AcDbLine
 10
1512.743429201302
 20
-487.1278407099512
 30
0.0
 11
1512.834524968815
 21
-487.3403975008142
 31
0.0
  0
LINE
  5
3DE
330
2BC
100
AcDbEntity
  8
Fills_ Pattern_Pen_No__153
  6
Continuous
100
AcDbLine
 10
1562.743429201302
 20
-487.1278407099512
 30
0.0
 11
1562.834524968816
 21
-487.3403975008142
 31
0.0
  0
LINE
  5
3DF
330
2BC
100
AcDbEntity
  8
Fills_ Pattern_Pen_No__153
  6
Continuous
100
AcDbLine
 10
1512.743429201302
 20
-437.1278407099512
 30
0.0
 11
1512.834524968815
 21
-437.3403975008142
 31
0.0
  0
LINE
  5
3E0
330
2BC
100
AcDbEntity
  8
Fills_ Pattern_Pen_No__153
  6
Continuous
100
AcDbLine
 10
1562.743429201302
 20
-437.1278407099512
 30
0.0
 11
1562.834524968816
 21
-437.3403975008142
 31
0.0
  0
LINE
  5
3E1
330
2BC
100
AcDbEntity
  8
Fills_ Pattern_Pen_No__153
  6
Continuous
100
AcDbLine
 10
1462.743429201302
 20
-387.1278407099512
 30
0.0
 11
1462.834524968815
 21
-387.3403975008142
 31
0.0
  0
LINE
  5
3E2
330
2BC
100
AcDbEntity
  8
Fills_ Pattern_Pen_No__153
  6
Continuous
100
AcDbLine
 10
1512.743429201302
 20
-387.1278407099512
 30
0.0
 11
1512.834524968815
 21
-387.3403975008142
 31
0.0
  0
LINE
  5
3E3
330
2BC
100
AcDbEntity
  8
Fills_ Pattern_Pen_No__153
  6
Continuous
100
AcDbLine
 10
1562.743429201302
 20
-387.1278407099512
 30
0.0
 11
1562.834524968816
 21
-387.3403975008142
 31
0.0
  0
LINE
  5
3E4
330
2BC
100
AcDbEntity
  8
Fills_ Pattern_Pen_No__153
  6
Continuous
100
AcDbLine
 10
1557.943901366629
 20
-512.983730298217
 30
0.0
 11
1557.056831906814
 21
-514.8989857985163
 31
0.0
  0
LINE
  5
3E5
330
2BC
100
AcDbEntity
  8
Fills_ Pattern_Pen_No__153
  6
Continuous
100
AcDbLine
 10
1507.943901366628
 20
-462.983730298217
 30
0.0
 11
1507.056831906814
 21
-464.8989857985163
 31
0.0
  0
LINE
  5
3E6
330
2BC
100
AcDbEntity
  8
Fills_ Pattern_Pen_No__153
  6
Continuous
100
AcDbLine
 10
1557.943901366629
 20
-462.983730298217
 30
0.0
 11
1557.056831906814
 21
-464.8989857985163
 31
0.0
  0
LINE
  5
3E7
330
2BC
100
AcDbEntity
  8
Fills_ Pattern_Pen_No__153
  6
Continuous
100
AcDbLine
 10
1507.943901366628
 20
-412.983730298217
 30
0.0
 11
1507.056831906814
 21
-414.8989857985162
 31
0.0
  0
LINE
  5
3E8
330
2BC
100
AcDbEntity
  8
Fills_ Pattern_Pen_No__153
  6
Continuous
100
AcDbLine
 10
1557.943901366629
 20
-412.983730298217
 30
0.0
 11
1557.056831906814
 21
-414.8989857985162
 31
0.0
  0
LINE
  5
3E9
330
2BC
100
AcDbEntity
  8
Fills_ Pattern_Pen_No__153
  6
Continuous
100
AcDbLine
 10
1457.943901366628
 20
-362.983730298217
 30
0.0
 11
1457.056831906814
 21
-364.8989857985163
 31
0.0
  0
LINE
  5
3EA
330
2BC
100
AcDbEntity
  8
Fills_ Pattern_Pen_No__153
  6
Continuous
100
AcDbLine
 10
1507.943901366628
 20
-362.983730298217
 30
0.0
 11
1507.056831906814
 21
-364.8989857985163
 31
0.0
  0
LINE
  5
3EB
330
2BC
100
AcDbEntity
  8
Fills_ Pattern_Pen_No__153
  6
Continuous
100
AcDbLine
 10
1557.943901366629
 20
-362.983730298217
 30
0.0
 11
1557.056831906814
 21
-364.8989857985163
 31
0.0
  0
LINE
  5
3EC
330
2BC
100
AcDbEntity
  8
Fills_ Pattern_Pen_No__153
  6
Continuous
100
AcDbLine
 10
1542.105161048796
 20
-471.8967961039793
 30
0.0
 11
1542.439955271414
 21
-472.1199922523914
 31
0.0
  0
LINE
  5
3ED
330
2BC
100
AcDbEntity
  8
Fills_ Pattern_Pen_No__153
  6
Continuous
100
AcDbLine
 10
1492.105161048797
 20
-421.8967961039793
 30
0.0
 11
1492.439955271415
 21
-422.1199922523913
 31
0.0
  0
LINE
  5
3EE
330
2BC
100
AcDbEntity
  8
Fills_ Pattern_Pen_No__153
  6
Continuous
100
AcDbLine
 10
1542.105161048796
 20
-421.8967961039793
 30
0.0
 11
1542.439955271414
 21
-422.1199922523913
 31
0.0
  0
LINE
  5
3EF
330
2BC
100
AcDbEntity
  8
Fills_ Pattern_Pen_No__153
  6
Continuous
100
AcDbLine
 10
1492.105161048797
 20
-371.8967961039794
 30
0.0
 11
1492.439955271415
 21
-372.1199922523914
 31
0.0
  0
LINE
  5
3F0
330
2BC
100
AcDbEntity
  8
Fills_ Pattern_Pen_No__153
  6
Continuous
100
AcDbLine
 10
1542.105161048796
 20
-371.8967961039794
 30
0.0
 11
1542.439955271414
 21
-372.1199922523914
 31
0.0
  0
LINE
  5
3F1
330
2BC
100
AcDbEntity
  8
Fills_ Pattern_Pen_No__153
  6
Continuous
100
AcDbLine
 10
1537.05983936502
 20
-505.7287903246789
 30
0.0
 11
1537.189200196172
 21
-506.1815532337095
 31
0.0
  0
LINE
  5
3F2
330
2BC
100
AcDbEntity
  8
Fills_ Pattern_Pen_No__153
  6
Continuous
100
AcDbLine
 10
1537.05983936502
 20
-455.7287903246789
 30
0.0
 11
1537.189200196172
 21
-456.1815532337094
 31
0.0
  0
LINE
  5
3F3
330
2BC
100
AcDbEntity
  8
Fills_ Pattern_Pen_No__153
  6
Continuous
100
AcDbLine
 10
1487.05983936502
 20
-405.7287903246789
 30
0.0
 11
1487.189200196171
 21
-406.1815532337094
 31
0.0
  0
LINE
  5
3F4
330
2BC
100
AcDbEntity
  8
Fills_ Pattern_Pen_No__153
  6
Continuous
100
AcDbLine
 10
1537.05983936502
 20
-405.7287903246789
 30
0.0
 11
1537.189200196172
 21
-406.1815532337094
 31
0.0
  0
LINE
  5
3F5
330
2BC
100
AcDbEntity
  8
Fills_ Pattern_Pen_No__153
  6
Continuous
100
AcDbLine
 10
1517.914436354585
 20
-479.4665028409957
 30
0.0
 11
1517.52635386113
 21
-479.7899049188747
 31
0.0
  0
LINE
  5
3F6
330
2BC
100
AcDbEntity
  8
Fills_ Pattern_Pen_No__153
  6
Continuous
100
AcDbLine
 10
1567.914436354585
 20
-479.4665028409957
 30
0.0
 11
1567.52635386113
 21
-479.7899049188747
 31
0.0
  0
LINE
  5
3F7
330
2BC
100
AcDbEntity
  8
Fills_ Pattern_Pen_No__153
  6
Continuous
100
AcDbLine
 10
1517.914436354585
 20
-429.4665028409956
 30
0.0
 11
1517.52635386113
 21
-429.7899049188747
 31
0.0
  0
LINE
  5
3F8
330
2BC
100
AcDbEntity
  8
Fills_ Pattern_Pen_No__153
  6
Continuous
100
AcDbLine
 10
1567.914436354585
 20
-429.4665028409956
 30
0.0
 11
1567.52635386113
 21
-429.7899049188747
 31
0.0
  0
LINE
  5
3F9
330
2BC
100
AcDbEntity
  8
Fills_ Pattern_Pen_No__153
  6
Continuous
100
AcDbLine
 10
1467.914436354585
 20
-379.4665028409957
 30
0.0
 11
1467.52635386113
 21
-379.7899049188747
 31
0.0
  0
LINE
  5
3FA
330
2BC
100
AcDbEntity
  8
Fills_ Pattern_Pen_No__153
  6
Continuous
100
AcDbLine
 10
1517.914436354585
 20
-379.4665028409957
 30
0.0
 11
1517.52635386113
 21
-379.7899049188747
 31
0.0
  0
LINE
  5
3FB
330
2BC
100
AcDbEntity
  8
Fills_ Pattern_Pen_No__153
  6
Continuous
100
AcDbLine
 10
1567.914436354585
 20
-379.4665028409957
 30
0.0
 11
1567.52635386113
 21
-379.7899049188747
 31
0.0
  0
LINE
  5
3FC
330
2BC
100
AcDbEntity
  8
Fills_ Pattern_Pen_No__153
  6
Continuous
100
AcDbLine
 10
1559.311941083004
 20
-507.5398419608011
 30
0.0
 11
1559.570662745307
 21
-507.7338832075285
 31
0.0
  0
LINE
  5
3FD
330
2BC
100
AcDbEntity
  8
Fills_ Pattern_Pen_No__153
  6
Continuous
100
AcDbLine
 10
1509.311941083004
 20
-457.5398419608011
 30
0.0
 11
1509.570662745307
 21
-457.7338832075285
 31
0.0
  0
LINE
  5
3FE
330
2BC
100
AcDbEntity
  8
Fills_ Pattern_Pen_No__153
  6
Continuous
100
AcDbLine
 10
1559.311941083004
 20
-457.5398419608011
 30
0.0
 11
1559.570662745307
 21
-457.7338832075285
 31
0.0
  0
LINE
  5
3FF
330
2BC
100
AcDbEntity
  8
Fills_ Pattern_Pen_No__153
  6
Continuous
100
AcDbLine
 10
1509.311941083004
 20
-407.5398419608012
 30
0.0
 11
1509.570662745307
 21
-407.7338832075285
 31
0.0
  0
LINE
  5
400
330
2BC
100
AcDbEntity
  8
Fills_ Pattern_Pen_No__153
  6
Continuous
100
AcDbLine
 10
1559.311941083004
 20
-407.5398419608012
 30
0.0
 11
1559.570662745307
 21
-407.7338832075285
 31
0.0
  0
LINE
  5
401
330
2BC
100
AcDbEntity
  8
Fills_ Pattern_Pen_No__153
  6
Continuous
100
AcDbLine
 10
1459.311941083004
 20
-357.5398419608012
 30
0.0
 11
1459.570662745307
 21
-357.7338832075286
 31
0.0
  0
LINE
  5
402
330
2BC
100
AcDbEntity
  8
Fills_ Pattern_Pen_No__153
  6
Continuous
100
AcDbLine
 10
1509.311941083004
 20
-357.5398419608012
 30
0.0
 11
1509.570662745307
 21
-357.7338832075286
 31
0.0
  0
LINE
  5
403
330
2BC
100
AcDbEntity
  8
Fills_ Pattern_Pen_No__153
  6
Continuous
100
AcDbLine
 10
1559.311941083004
 20
-357.5398419608012
 30
0.0
 11
1559.570662745307
 21
-357.7338832075286
 31
0.0
  0
LINE
  5
404
330
2BC
100
AcDbEntity
  8
Fills_ Pattern_Pen_No__153
  6
Continuous
100
AcDbLine
 10
1548.445631266271
 20
-492.1438642938514
 30
0.0
 11
1548.639672512998
 21
-492.4672663717304
 31
0.0
  0
LINE
  5
405
330
2BC
100
AcDbEntity
  8
Fills_ Pattern_Pen_No__153
  6
Continuous
100
AcDbLine
 10
1498.44563126627
 20
-442.1438642938514
 30
0.0
 11
1498.639672512998
 21
-442.4672663717304
 31
0.0
  0
LINE
  5
406
330
2BC
100
AcDbEntity
  8
Fills_ Pattern_Pen_No__153
  6
Continuous
100
AcDbLine
 10
1548.445631266271
 20
-442.1438642938514
 30
0.0
 11
1548.639672512998
 21
-442.4672663717304
 31
0.0
  0
LINE
  5
407
330
2BC
100
AcDbEntity
  8
Fills_ Pattern_Pen_No__153
  6
Continuous
100
AcDbLine
 10
1498.44563126627
 20
-392.1438642938515
 30
0.0
 11
1498.639672512998
 21
-392.4672663717305
 31
0.0
  0
LINE
  5
408
330
2BC
100
AcDbEntity
  8
Fills_ Pattern_Pen_No__153
  6
Continuous
100
AcDbLine
 10
1548.445631266271
 20
-392.1438642938515
 30
0.0
 11
1548.639672512998
 21
-392.4672663717305
 31
0.0
  0
LINE
  5
409
330
2BC
100
AcDbEntity
  8
Fills_ Pattern_Pen_No__153
  6
Continuous
100
AcDbLine
 10
1533.116372774807
 20
-496.8655346308844
 30
0.0
 11
1533.504455268262
 21
-496.4774521374297
 31
0.0
  0
LINE
  5
40A
330
2BC
100
AcDbEntity
  8
Fills_ Pattern_Pen_No__153
  6
Continuous
100
AcDbLine
 10
1533.116372774807
 20
-446.8655346308844
 30
0.0
 11
1533.504455268262
 21
-446.4774521374297
 31
0.0
  0
LINE
  5
40B
330
2BC
100
AcDbEntity
  8
Fills_ Pattern_Pen_No__153
  6
Continuous
100
AcDbLine
 10
1483.116372774807
 20
-396.8655346308846
 30
0.0
 11
1483.504455268262
 21
-396.4774521374297
 31
0.0
  0
LINE
  5
40C
330
2BC
100
AcDbEntity
  8
Fills_ Pattern_Pen_No__153
  6
Continuous
100
AcDbLine
 10
1533.116372774807
 20
-396.8655346308846
 30
0.0
 11
1533.504455268262
 21
-396.4774521374297
 31
0.0
  0
LINE
  5
40D
330
2BC
100
AcDbEntity
  8
Fills_ Pattern_Pen_No__153
  6
Continuous
100
AcDbLine
 10
1556.726763219883
 20
-505.5327103180409
 30
0.0
 11
1557.244206544489
 21
-505.7914319803441
 31
0.0
  0
LINE
  5
40E
330
2BC
100
AcDbEntity
  8
Fills_ Pattern_Pen_No__153
  6
Continuous
100
AcDbLine
 10
1506.726763219883
 20
-455.5327103180409
 30
0.0
 11
1507.244206544489
 21
-455.7914319803442
 31
0.0
  0
LINE
  5
40F
330
2BC
100
AcDbEntity
  8
Fills_ Pattern_Pen_No__153
  6
Continuous
100
AcDbLine
 10
1556.726763219883
 20
-455.5327103180409
 30
0.0
 11
1557.244206544489
 21
-455.7914319803442
 31
0.0
  0
LINE
  5
410
330
2BC
100
AcDbEntity
  8
Fills_ Pattern_Pen_No__153
  6
Continuous
100
AcDbLine
 10
1506.726763219883
 20
-405.5327103180409
 30
0.0
 11
1507.244206544489
 21
-405.7914319803442
 31
0.0
  0
LINE
  5
411
330
2BC
100
AcDbEntity
  8
Fills_ Pattern_Pen_No__153
  6
Continuous
100
AcDbLine
 10
1556.726763219883
 20
-405.5327103180409
 30
0.0
 11
1557.244206544489
 21
-405.7914319803442
 31
0.0
  0
LINE
  5
412
330
2BC
100
AcDbEntity
  8
Fills_ Pattern_Pen_No__153
  6
Continuous
100
AcDbLine
 10
1503.428062025517
 20
-473.7079070948393
 30
0.0
 11
1503.557422856669
 21
-473.2551441858086
 31
0.0
  0
LINE
  5
413
330
2BC
100
AcDbEntity
  8
Fills_ Pattern_Pen_No__153
  6
Continuous
100
AcDbLine
 10
1553.428062025517
 20
-473.7079070948393
 30
0.0
 11
1553.557422856669
 21
-473.2551441858086
 31
0.0
  0
LINE
  5
414
330
2BC
100
AcDbEntity
  8
Fills_ Pattern_Pen_No__153
  6
Continuous
100
AcDbLine
 10
1503.428062025517
 20
-423.7079070948393
 30
0.0
 11
1503.557422856669
 21
-423.2551441858086
 31
0.0
  0
LINE
  5
415
330
2BC
100
AcDbEntity
  8
Fills_ Pattern_Pen_No__153
  6
Continuous
100
AcDbLine
 10
1553.428062025517
 20
-423.7079070948393
 30
0.0
 11
1553.557422856669
 21
-423.2551441858086
 31
0.0
  0
LINE
  5
416
330
2BC
100
AcDbEntity
  8
Fills_ Pattern_Pen_No__153
  6
Continuous
100
AcDbLine
 10
1453.428062025517
 20
-373.7079070948393
 30
0.0
 11
1453.557422856668
 21
-373.2551441858087
 31
0.0
  0
LINE
  5
417
330
2BC
100
AcDbEntity
  8
Fills_ Pattern_Pen_No__153
  6
Continuous
100
AcDbLine
 10
1503.428062025517
 20
-373.7079070948393
 30
0.0
 11
1503.557422856669
 21
-373.2551441858087
 31
0.0
  0
LINE
  5
418
330
2BC
100
AcDbEntity
  8
Fills_ Pattern_Pen_No__153
  6
Continuous
100
AcDbLine
 10
1553.428062025517
 20
-373.7079070948393
 30
0.0
 11
1553.557422856669
 21
-373.2551441858087
 31
0.0
  0
LINE
  5
419
330
2BC
100
AcDbEntity
  8
Fills_ Pattern_Pen_No__153
  6
Continuous
100
AcDbLine
 10
1552.716577454184
 20
-488.5844026772721
 30
0.0
 11
1553.104659947638
 21
-488.7784439239994
 31
0.0
  0
LINE
  5
41A
330
2BC
100
AcDbEntity
  8
Fills_ Pattern_Pen_No__153
  6
Continuous
100
AcDbLine
 10
1502.716577454183
 20
-438.5844026772721
 30
0.0
 11
1503.104659947638
 21
-438.7784439239995
 31
0.0
  0
LINE
  5
41B
330
2BC
100
AcDbEntity
  8
Fills_ Pattern_Pen_No__153
  6
Continuous
100
AcDbLine
 10
1552.716577454184
 20
-438.5844026772721
 30
0.0
 11
1553.104659947638
 21
-438.7784439239995
 31
0.0
  0
LINE
  5
41C
330
2BC
100
AcDbEntity
  8
Fills_ Pattern_Pen_No__153
  6
Continuous
100
AcDbLine
 10
1502.716577454183
 20
-388.5844026772721
 30
0.0
 11
1503.104659947638
 21
-388.7784439239995
 31
0.0
  0
LINE
  5
41D
330
2BC
100
AcDbEntity
  8
Fills_ Pattern_Pen_No__153
  6
Continuous
100
AcDbLine
 10
1552.716577454184
 20
-388.5844026772721
 30
0.0
 11
1553.104659947638
 21
-388.7784439239995
 31
0.0
  0
LINE
  5
41E
330
2BC
100
AcDbEntity
  8
Fills_ Pattern_Pen_No__153
  6
Continuous
100
AcDbLine
 10
1550.064680415576
 20
-481.8596782172999
 30
0.0
 11
1550.323402077879
 21
-482.0537194640273
 31
0.0
  0
LINE
  5
41F
330
2BC
100
AcDbEntity
  8
Fills_ Pattern_Pen_No__153
  6
Continuous
100
AcDbLine
 10
1500.064680415576
 20
-431.8596782172998
 30
0.0
 11
1500.323402077879
 21
-432.0537194640272
 31
0.0
  0
LINE
  5
420
330
2BC
100
AcDbEntity
  8
Fills_ Pattern_Pen_No__153
  6
Continuous
100
AcDbLine
 10
1550.064680415576
 20
-431.8596782172998
 30
0.0
 11
1550.323402077879
 21
-432.0537194640272
 31
0.0
  0
LINE
  5
421
330
2BC
100
AcDbEntity
  8
Fills_ Pattern_Pen_No__153
  6
Continuous
100
AcDbLine
 10
1500.064680415576
 20
-381.8596782172999
 30
0.0
 11
1500.323402077879
 21
-382.0537194640273
 31
0.0
  0
LINE
  5
422
330
2BC
100
AcDbEntity
  8
Fills_ Pattern_Pen_No__153
  6
Continuous
100
AcDbLine
 10
1550.064680415576
 20
-381.8596782172999
 30
0.0
 11
1550.323402077879
 21
-382.0537194640273
 31
0.0
  0
LINE
  5
423
330
2BC
100
AcDbEntity
  8
Fills_ Pattern_Pen_No__153
  6
Continuous
100
AcDbLine
 10
1550.323402077879
 20
-502.0420066368584
 30
0.0
 11
1550.0
 21
-502.1066870524343
 31
0.0
  0
LINE
  5
424
330
2BC
100
AcDbEntity
  8
Fills_ Pattern_Pen_No__153
  6
Continuous
100
AcDbLine
 10
1500.323402077879
 20
-452.0420066368584
 30
0.0
 11
1500.0
 21
-452.1066870524342
 31
0.0
  0
LINE
  5
425
330
2BC
100
AcDbEntity
  8
Fills_ Pattern_Pen_No__153
  6
Continuous
100
AcDbLine
 10
1550.323402077879
 20
-452.0420066368584
 30
0.0
 11
1550.0
 21
-452.1066870524342
 31
0.0
  0
LINE
  5
426
330
2BC
100
AcDbEntity
  8
Fills_ Pattern_Pen_No__153
  6
Continuous
100
AcDbLine
 10
1500.323402077879
 20
-402.0420066368584
 30
0.0
 11
1500.0
 21
-402.1066870524343
 31
0.0
  0
LINE
  5
427
330
2BC
100
AcDbEntity
  8
Fills_ Pattern_Pen_No__153
  6
Continuous
100
AcDbLine
 10
1550.323402077879
 20
-402.0420066368584
 30
0.0
 11
1550.0
 21
-402.1066870524343
 31
0.0
  0
LINE
  5
428
330
2BC
100
AcDbEntity
  8
Fills_ Pattern_Pen_No__153
  6
Continuous
100
AcDbLine
 10
1519.53348550389
 20
-474.1627087637803
 30
0.0
 11
1519.856887581769
 21
-474.2273891793561
 31
0.0
  0
LINE
  5
429
330
2BC
100
AcDbEntity
  8
Fills_ Pattern_Pen_No__153
  6
Continuous
100
AcDbLine
 10
1569.53348550389
 20
-474.1627087637803
 30
0.0
 11
1569.856887581769
 21
-474.2273891793561
 31
0.0
  0
LINE
  5
42A
330
2BC
100
AcDbEntity
  8
Fills_ Pattern_Pen_No__153
  6
Continuous
100
AcDbLine
 10
1519.53348550389
 20
-424.1627087637803
 30
0.0
 11
1519.856887581769
 21
-424.2273891793561
 31
0.0
  0
LINE
  5
42B
330
2BC
100
AcDbEntity
  8
Fills_ Pattern_Pen_No__153
  6
Continuous
100
AcDbLine
 10
1569.53348550389
 20
-424.1627087637803
 30
0.0
 11
1569.856887581769
 21
-424.2273891793561
 31
0.0
  0
LINE
  5
42C
330
2BC
100
AcDbEntity
  8
Fills_ Pattern_Pen_No__153
  6
Continuous
100
AcDbLine
 10
1469.53348550389
 20
-374.1627087637804
 30
0.0
 11
1469.856887581769
 21
-374.2273891793562
 31
0.0
  0
LINE
  5
42D
330
2BC
100
AcDbEntity
  8
Fills_ Pattern_Pen_No__153
  6
Continuous
100
AcDbLine
 10
1519.53348550389
 20
-374.1627087637804
 30
0.0
 11
1519.856887581769
 21
-374.2273891793562
 31
0.0
  0
LINE
  5
42E
330
2BC
100
AcDbEntity
  8
Fills_ Pattern_Pen_No__153
  6
Continuous
100
AcDbLine
 10
1569.53348550389
 20
-374.1627087637804
 30
0.0
 11
1569.856887581769
 21
-374.2273891793562
 31
0.0
  0
LINE
  5
42F
330
2BC
100
AcDbEntity
  8
Fills_ Pattern_Pen_No__153
  6
Continuous
100
AcDbLine
 10
1575.872166230318
 20
-516.4010588946849
 30
0.0
 11
1576.130887892621
 21
-516.9831826348671
 31
0.0
  0
LINE
  5
430
330
2BC
100
AcDbEntity
  8
Fills_ Pattern_Pen_No__153
  6
Continuous
100
AcDbLine
 10
1525.872166230318
 20
-466.4010588946849
 30
0.0
 11
1526.130887892621
 21
-466.9831826348671
 31
0.0
  0
LINE
  5
431
330
2BC
100
AcDbEntity
  8
Fills_ Pattern_Pen_No__153
  6
Continuous
100
AcDbLine
 10
1575.872166230318
 20
-466.4010588946849
 30
0.0
 11
1576.130887892621
 21
-466.9831826348671
 31
0.0
  0
LINE
  5
432
330
2BC
100
AcDbEntity
  8
Fills_ Pattern_Pen_No__153
  6
Continuous
100
AcDbLine
 10
1475.872166230318
 20
-416.4010588946849
 30
0.0
 11
1476.130887892621
 21
-416.9831826348671
 31
0.0
  0
LINE
  5
433
330
2BC
100
AcDbEntity
  8
Fills_ Pattern_Pen_No__153
  6
Continuous
100
AcDbLine
 10
1525.872166230318
 20
-416.4010588946849
 30
0.0
 11
1526.130887892621
 21
-416.9831826348671
 31
0.0
  0
LINE
  5
434
330
2BC
100
AcDbEntity
  8
Fills_ Pattern_Pen_No__153
  6
Continuous
100
AcDbLine
 10
1575.872166230318
 20
-416.4010588946849
 30
0.0
 11
1576.130887892621
 21
-416.9831826348671
 31
0.0
  0
LINE
  5
435
330
2BC
100
AcDbEntity
  8
Fills_ Pattern_Pen_No__153
  6
Continuous
100
AcDbLine
 10
1475.872166230318
 20
-366.401058894685
 30
0.0
 11
1476.130887892621
 21
-366.9831826348672
 31
0.0
  0
LINE
  5
436
330
2BC
100
AcDbEntity
  8
Fills_ Pattern_Pen_No__153
  6
Continuous
100
AcDbLine
 10
1525.872166230318
 20
-366.401058894685
 30
0.0
 11
1526.130887892621
 21
-366.9831826348672
 31
0.0
  0
LINE
  5
437
330
2BC
100
AcDbEntity
  8
Fills_ Pattern_Pen_No__153
  6
Continuous
100
AcDbLine
 10
1575.872166230318
 20
-366.401058894685
 30
0.0
 11
1576.130887892621
 21
-366.9831826348672
 31
0.0
  0
LINE
  5
438
330
2BC
100
AcDbEntity
  8
Fills_ Pattern_Pen_No__153
  6
Continuous
100
AcDbLine
 10
1558.542882603089
 20
-514.2444282977459
 30
0.0
 11
1557.943901366629
 21
-512.983730298217
 31
0.0
  0
LINE
  5
439
330
2BC
100
AcDbEntity
  8
Fills_ Pattern_Pen_No__153
  6
Continuous
100
AcDbLine
 10
1508.542882603089
 20
-464.2444282977458
 30
0.0
 11
1507.943901366628
 21
-462.983730298217
 31
0.0
  0
LINE
  5
43A
330
2BC
100
AcDbEntity
  8
Fills_ Pattern_Pen_No__153
  6
Continuous
100
AcDbLine
 10
1558.542882603089
 20
-464.2444282977458
 30
0.0
 11
1557.943901366629
 21
-462.983730298217
 31
0.0
  0
LINE
  5
43B
330
2BC
100
AcDbEntity
  8
Fills_ Pattern_Pen_No__153
  6
Continuous
100
AcDbLine
 10
1508.542882603089
 20
-414.2444282977458
 30
0.0
 11
1507.943901366628
 21
-412.983730298217
 31
0.0
  0
LINE
  5
43C
330
2BC
100
AcDbEntity
  8
Fills_ Pattern_Pen_No__153
  6
Continuous
100
AcDbLine
 10
1558.542882603089
 20
-414.2444282977458
 30
0.0
 11
1557.943901366629
 21
-412.983730298217
 31
0.0
  0
LINE
  5
43D
330
2BC
100
AcDbEntity
  8
Fills_ Pattern_Pen_No__153
  6
Continuous
100
AcDbLine
 10
1458.542882603089
 20
-364.2444282977459
 30
0.0
 11
1457.943901366628
 21
-362.983730298217
 31
0.0
  0
LINE
  5
43E
330
2BC
100
AcDbEntity
  8
Fills_ Pattern_Pen_No__153
  6
Continuous
100
AcDbLine
 10
1508.542882603089
 20
-364.2444282977459
 30
0.0
 11
1507.943901366628
 21
-362.983730298217
 31
0.0
  0
LINE
  5
43F
330
2BC
100
AcDbEntity
  8
Fills_ Pattern_Pen_No__153
  6
Continuous
100
AcDbLine
 10
1558.542882603089
 20
-364.2444282977459
 30
0.0
 11
1557.943901366629
 21
-362.983730298217
 31
0.0
  0
LINE
  5
440
330
2BC
100
AcDbEntity
  8
Fills_ Pattern_Pen_No__153
  6
Continuous
100
AcDbLine
 10
1499.849073965844
 20
-474.5368297067351
 30
0.0
 11
1500.222006598328
 21
-474.4357326685316
 31
0.0
  0
LINE
  5
441
330
2BC
100
AcDbEntity
  8
Fills_ Pattern_Pen_No__153
  6
Continuous
100
AcDbLine
 10
1549.849073965844
 20
-474.5368297067351
 30
0.0
 11
1550.222006598328
 21
-474.4357326685316
 31
0.0
  0
LINE
  5
442
330
2BC
100
AcDbEntity
  8
Fills_ Pattern_Pen_No__153
  6
Continuous
100
AcDbLine
 10
1499.849073965844
 20
-424.5368297067351
 30
0.0
 11
1500.222006598328
 21
-424.4357326685316
 31
0.0
  0
LINE
  5
443
330
2BC
100
AcDbEntity
  8
Fills_ Pattern_Pen_No__153
  6
Continuous
100
AcDbLine
 10
1549.849073965844
 20
-424.5368297067351
 30
0.0
 11
1550.222006598328
 21
-424.4357326685316
 31
0.0
  0
LINE
  5
444
330
2BC
100
AcDbEntity
  8
Fills_ Pattern_Pen_No__153
  6
Continuous
100
AcDbLine
 10
1499.849073965844
 20
-374.5368297067352
 30
0.0
 11
1500.222006598328
 21
-374.4357326685317
 31
0.0
  0
LINE
  5
445
330
2BC
100
AcDbEntity
  8
Fills_ Pattern_Pen_No__153
  6
Continuous
100
AcDbLine
 10
1549.849073965844
 20
-374.5368297067352
 30
0.0
 11
1550.222006598328
 21
-374.4357326685317
 31
0.0
  0
LINE
  5
446
330
2BC
100
AcDbEntity
  8
Fills_ Pattern_Pen_No__153
  6
Continuous
100
AcDbLine
 10
1507.089590049328
 20
-472.8165267815565
 30
0.0
 11
1507.27714997778
 21
-473.0878084310915
 31
0.0
  0
LINE
  5
447
330
2BC
100
AcDbEntity
  8
Fills_ Pattern_Pen_No__153
  6
Continuous
100
AcDbLine
 10
1557.089590049328
 20
-472.8165267815565
 30
0.0
 11
1557.27714997778
 21
-473.0878084310915
 31
0.0
  0
LINE
  5
448
330
2BC
100
AcDbEntity
  8
Fills_ Pattern_Pen_No__153
  6
Continuous
100
AcDbLine
 10
1507.089590049328
 20
-422.8165267815565
 30
0.0
 11
1507.27714997778
 21
-423.0878084310915
 31
0.0
  0
LINE
  5
449
330
2BC
100
AcDbEntity
  8
Fills_ Pattern_Pen_No__153
  6
Continuous
100
AcDbLine
 10
1557.089590049328
 20
-422.8165267815565
 30
0.0
 11
1557.27714997778
 21
-423.0878084310915
 31
0.0
  0
LINE
  5
44A
330
2BC
100
AcDbEntity
  8
Fills_ Pattern_Pen_No__153
  6
Continuous
100
AcDbLine
 10
1457.089590049327
 20
-372.8165267815566
 30
0.0
 11
1457.27714997778
 21
-373.0878084310915
 31
0.0
  0
LINE
  5
44B
330
2BC
100
AcDbEntity
  8
Fills_ Pattern_Pen_No__153
  6
Continuous
100
AcDbLine
 10
1507.089590049328
 20
-372.8165267815566
 30
0.0
 11
1507.27714997778
 21
-373.0878084310915
 31
0.0
  0
LINE
  5
44C
330
2BC
100
AcDbEntity
  8
Fills_ Pattern_Pen_No__153
  6
Continuous
100
AcDbLine
 10
1557.089590049328
 20
-372.8165267815566
 30
0.0
 11
1557.27714997778
 21
-373.0878084310915
 31
0.0
  0
LINE
  5
44D
330
2BC
100
AcDbEntity
  8
Fills_ Pattern_Pen_No__153
  6
Continuous
100
AcDbLine
 10
1517.041581007128
 20
-471.6418106380261
 30
0.0
 11
1516.822992172289
 21
-472.2401615958361
 31
0.0
  0
LINE
  5
44E
330
2BC
100
AcDbEntity
  8
Fills_ Pattern_Pen_No__153
  6
Continuous
100
AcDbLine
 10
1567.041581007128
 20
-471.6418106380261
 30
0.0
 11
1566.822992172289
 21
-472.2401615958361
 31
0.0
  0
LINE
  5
44F
330
2BC
100
AcDbEntity
  8
Fills_ Pattern_Pen_No__153
  6
Continuous
100
AcDbLine
 10
1517.041581007128
 20
-421.6418106380261
 30
0.0
 11
1516.822992172289
 21
-422.2401615958362
 31
0.0
  0
LINE
  5
450
330
2BC
100
AcDbEntity
  8
Fills_ Pattern_Pen_No__153
  6
Continuous
100
AcDbLine
 10
1567.041581007128
 20
-421.6418106380261
 30
0.0
 11
1566.822992172289
 21
-422.2401615958362
 31
0.0
  0
LINE
  5
451
330
2BC
100
AcDbEntity
  8
Fills_ Pattern_Pen_No__153
  6
Continuous
100
AcDbLine
 10
1467.041581007128
 20
-371.6418106380261
 30
0.0
 11
1466.822992172289
 21
-372.2401615958362
 31
0.0
  0
LINE
  5
452
330
2BC
100
AcDbEntity
  8
Fills_ Pattern_Pen_No__153
  6
Continuous
100
AcDbLine
 10
1517.041581007128
 20
-371.6418106380261
 30
0.0
 11
1516.822992172289
 21
-372.2401615958362
 31
0.0
  0
LINE
  5
453
330
2BC
100
AcDbEntity
  8
Fills_ Pattern_Pen_No__153
  6
Continuous
100
AcDbLine
 10
1567.041581007128
 20
-371.6418106380261
 30
0.0
 11
1566.822992172289
 21
-372.2401615958362
 31
0.0
  0
LINE
  5
454
330
2BC
100
AcDbEntity
  8
Fills_ Pattern_Pen_No__153
  6
Continuous
100
AcDbLine
 10
1562.3970016562
 20
-514.5258870541954
 30
0.0
 11
1563.408302734566
 21
-514.0487870668975
 31
0.0
  0
LINE
  5
455
330
2BC
100
AcDbEntity
  8
Fills_ Pattern_Pen_No__153
  6
Continuous
100
AcDbLine
 10
1512.3970016562
 20
-464.5258870541954
 30
0.0
 11
1513.408302734566
 21
-464.0487870668975
 31
0.0
  0
LINE
  5
456
330
2BC
100
AcDbEntity
  8
Fills_ Pattern_Pen_No__153
  6
Continuous
100
AcDbLine
 10
1562.3970016562
 20
-464.5258870541954
 30
0.0
 11
1563.408302734566
 21
-464.0487870668975
 31
0.0
  0
LINE
  5
457
330
2BC
100
AcDbEntity
  8
Fills_ Pattern_Pen_No__153
  6
Continuous
100
AcDbLine
 10
1512.3970016562
 20
-414.5258870541954
 30
0.0
 11
1513.408302734566
 21
-414.0487870668975
 31
0.0
  0
LINE
  5
458
330
2BC
100
AcDbEntity
  8
Fills_ Pattern_Pen_No__153
  6
Continuous
100
AcDbLine
 10
1562.3970016562
 20
-414.5258870541954
 30
0.0
 11
1563.408302734566
 21
-414.0487870668975
 31
0.0
  0
LINE
  5
459
330
2BC
100
AcDbEntity
  8
Fills_ Pattern_Pen_No__153
  6
Continuous
100
AcDbLine
 10
1462.3970016562
 20
-364.5258870541955
 30
0.0
 11
1463.408302734566
 21
-364.0487870668975
 31
0.0
  0
LINE
  5
45A
330
2BC
100
AcDbEntity
  8
Fills_ Pattern_Pen_No__153
  6
Continuous
100
AcDbLine
 10
1512.3970016562
 20
-364.5258870541955
 30
0.0
 11
1513.408302734566
 21
-364.0487870668975
 31
0.0
  0
LINE
  5
45B
330
2BC
100
AcDbEntity
  8
Fills_ Pattern_Pen_No__153
  6
Continuous
100
AcDbLine
 10
1562.3970016562
 20
-364.5258870541955
 30
0.0
 11
1563.408302734566
 21
-364.0487870668975
 31
0.0
  0
LINE
  5
45C
330
2BC
100
AcDbEntity
  8
Fills_ Pattern_Pen_No__153
  6
Continuous
100
AcDbLine
 10
1563.408302734566
 20
-514.0487870668975
 30
0.0
 11
1564.661595339896
 21
-515.210931119113
 31
0.0
  0
LINE
  5
45D
330
2BC
100
AcDbEntity
  8
Fills_ Pattern_Pen_No__153
  6
Continuous
100
AcDbLine
 10
1513.408302734566
 20
-464.0487870668975
 30
0.0
 11
1514.661595339896
 21
-465.210931119113
 31
0.0
  0
LINE
  5
45E
330
2BC
100
AcDbEntity
  8
Fills_ Pattern_Pen_No__153
  6
Continuous
100
AcDbLine
 10
1563.408302734566
 20
-464.0487870668975
 30
0.0
 11
1564.661595339896
 21
-465.210931119113
 31
0.0
  0
LINE
  5
45F
330
2BC
100
AcDbEntity
  8
Fills_ Pattern_Pen_No__153
  6
Continuous
100
AcDbLine
 10
1513.408302734566
 20
-414.0487870668975
 30
0.0
 11
1514.661595339896
 21
-415.210931119113
 31
0.0
  0
LINE
  5
460
330
2BC
100
AcDbEntity
  8
Fills_ Pattern_Pen_No__153
  6
Continuous
100
AcDbLine
 10
1563.408302734566
 20
-414.0487870668975
 30
0.0
 11
1564.661595339896
 21
-415.210931119113
 31
0.0
  0
LINE
  5
461
330
2BC
100
AcDbEntity
  8
Fills_ Pattern_Pen_No__153
  6
Continuous
100
AcDbLine
 10
1463.408302734566
 20
-364.0487870668975
 30
0.0
 11
1464.661595339896
 21
-365.210931119113
 31
0.0
  0
LINE
  5
462
330
2BC
100
AcDbEntity
  8
Fills_ Pattern_Pen_No__153
  6
Continuous
100
AcDbLine
 10
1513.408302734566
 20
-364.0487870668975
 30
0.0
 11
1514.661595339896
 21
-365.210931119113
 31
0.0
  0
LINE
  5
463
330
2BC
100
AcDbEntity
  8
Fills_ Pattern_Pen_No__153
  6
Continuous
100
AcDbLine
 10
1563.408302734566
 20
-364.0487870668975
 30
0.0
 11
1564.661595339896
 21
-365.210931119113
 31
0.0
  0
LINE
  5
464
330
2BC
100
AcDbEntity
  8
Fills_ Pattern_Pen_No__153
  6
Continuous
100
AcDbLine
 10
1563.066495660385
 20
-516.3047137564923
 30
0.0
 11
1562.3970016562
 21
-514.5258870541954
 31
0.0
  0
LINE
  5
465
330
2BC
100
AcDbEntity
  8
Fills_ Pattern_Pen_No__153
  6
Continuous
100
AcDbLine
 10
1513.066495660385
 20
-466.3047137564922
 30
0.0
 11
1512.3970016562
 21
-464.5258870541954
 31
0.0
  0
LINE
  5
466
330
2BC
100
AcDbEntity
  8
Fills_ Pattern_Pen_No__153
  6
Continuous
100
AcDbLine
 10
1563.066495660385
 20
-466.3047137564922
 30
0.0
 11
1562.3970016562
 21
-464.5258870541954
 31
0.0
  0
LINE
  5
467
330
2BC
100
AcDbEntity
  8
Fills_ Pattern_Pen_No__153
  6
Continuous
100
AcDbLine
 10
1513.066495660385
 20
-416.3047137564923
 30
0.0
 11
1512.3970016562
 21
-414.5258870541954
 31
0.0
  0
LINE
  5
468
330
2BC
100
AcDbEntity
  8
Fills_ Pattern_Pen_No__153
  6
Continuous
100
AcDbLine
 10
1563.066495660385
 20
-416.3047137564923
 30
0.0
 11
1562.3970016562
 21
-414.5258870541954
 31
0.0
  0
LINE
  5
469
330
2BC
100
AcDbEntity
  8
Fills_ Pattern_Pen_No__153
  6
Continuous
100
AcDbLine
 10
1463.066495660385
 20
-366.3047137564924
 30
0.0
 11
1462.3970016562
 21
-364.5258870541955
 31
0.0
  0
LINE
  5
46A
330
2BC
100
AcDbEntity
  8
Fills_ Pattern_Pen_No__153
  6
Continuous
100
AcDbLine
 10
1513.066495660385
 20
-366.3047137564924
 30
0.0
 11
1512.3970016562
 21
-364.5258870541955
 31
0.0
  0
LINE
  5
46B
330
2BC
100
AcDbEntity
  8
Fills_ Pattern_Pen_No__153
  6
Continuous
100
AcDbLine
 10
1563.066495660385
 20
-366.3047137564924
 30
0.0
 11
1562.3970016562
 21
-364.5258870541955
 31
0.0
  0
LINE
  5
46C
330
2BC
100
AcDbEntity
  8
Fills_ Pattern_Pen_No__153
  6
Continuous
100
AcDbLine
 10
1564.661595339896
 20
-515.210931119113
 30
0.0
 11
1563.066495660385
 21
-516.3047137564923
 31
0.0
  0
LINE
  5
46D
330
2BC
100
AcDbEntity
  8
Fills_ Pattern_Pen_No__153
  6
Continuous
100
AcDbLine
 10
1514.661595339896
 20
-465.210931119113
 30
0.0
 11
1513.066495660385
 21
-466.3047137564922
 31
0.0
  0
LINE
  5
46E
330
2BC
100
AcDbEntity
  8
Fills_ Pattern_Pen_No__153
  6
Continuous
100
AcDbLine
 10
1564.661595339896
 20
-465.210931119113
 30
0.0
 11
1563.066495660385
 21
-466.3047137564922
 31
0.0
  0
LINE
  5
46F
330
2BC
100
AcDbEntity
  8
Fills_ Pattern_Pen_No__153
  6
Continuous
100
AcDbLine
 10
1514.661595339896
 20
-415.210931119113
 30
0.0
 11
1513.066495660385
 21
-416.3047137564923
 31
0.0
  0
LINE
  5
470
330
2BC
100
AcDbEntity
  8
Fills_ Pattern_Pen_No__153
  6
Continuous
100
AcDbLine
 10
1564.661595339896
 20
-415.210931119113
 30
0.0
 11
1563.066495660385
 21
-416.3047137564923
 31
0.0
  0
LINE
  5
471
330
2BC
100
AcDbEntity
  8
Fills_ Pattern_Pen_No__153
  6
Continuous
100
AcDbLine
 10
1464.661595339896
 20
-365.210931119113
 30
0.0
 11
1463.066495660385
 21
-366.3047137564924
 31
0.0
  0
LINE
  5
472
330
2BC
100
AcDbEntity
  8
Fills_ Pattern_Pen_No__153
  6
Continuous
100
AcDbLine
 10
1514.661595339896
 20
-365.210931119113
 30
0.0
 11
1513.066495660385
 21
-366.3047137564924
 31
0.0
  0
LINE
  5
473
330
2BC
100
AcDbEntity
  8
Fills_ Pattern_Pen_No__153
  6
Continuous
100
AcDbLine
 10
1564.661595339896
 20
-365.210931119113
 30
0.0
 11
1563.066495660385
 21
-366.3047137564924
 31
0.0
  0
LINE
  5
474
330
2BC
100
AcDbEntity
  8
Fills_ Pattern_Pen_No__153
  6
Continuous
100
AcDbLine
 10
1557.056831906814
 20
-514.8989857985163
 30
0.0
 11
1558.542882603089
 21
-514.2444282977459
 31
0.0
  0
LINE
  5
475
330
2BC
100
AcDbEntity
  8
Fills_ Pattern_Pen_No__153
  6
Continuous
100
AcDbLine
 10
1507.056831906814
 20
-464.8989857985163
 30
0.0
 11
1508.542882603089
 21
-464.2444282977458
 31
0.0
  0
LINE
  5
476
330
2BC
100
AcDbEntity
  8
Fills_ Pattern_Pen_No__153
  6
Continuous
100
AcDbLine
 10
1557.056831906814
 20
-464.8989857985163
 30
0.0
 11
1558.542882603089
 21
-464.2444282977458
 31
0.0
  0
LINE
  5
477
330
2BC
100
AcDbEntity
  8
Fills_ Pattern_Pen_No__153
  6
Continuous
100
AcDbLine
 10
1507.056831906814
 20
-414.8989857985162
 30
0.0
 11
1508.542882603089
 21
-414.2444282977458
 31
0.0
  0
LINE
  5
478
330
2BC
100
AcDbEntity
  8
Fills_ Pattern_Pen_No__153
  6
Continuous
100
AcDbLine
 10
1557.056831906814
 20
-414.8989857985162
 30
0.0
 11
1558.542882603089
 21
-414.2444282977458
 31
0.0
  0
LINE
  5
479
330
2BC
100
AcDbEntity
  8
Fills_ Pattern_Pen_No__153
  6
Continuous
100
AcDbLine
 10
1457.056831906814
 20
-364.8989857985163
 30
0.0
 11
1458.542882603089
 21
-364.2444282977459
 31
0.0
  0
LINE
  5
47A
330
2BC
100
AcDbEntity
  8
Fills_ Pattern_Pen_No__153
  6
Continuous
100
AcDbLine
 10
1507.056831906814
 20
-364.8989857985163
 30
0.0
 11
1508.542882603089
 21
-364.2444282977459
 31
0.0
  0
LINE
  5
47B
330
2BC
100
AcDbEntity
  8
Fills_ Pattern_Pen_No__153
  6
Continuous
100
AcDbLine
 10
1557.056831906814
 20
-364.8989857985163
 30
0.0
 11
1558.542882603089
 21
-364.2444282977459
 31
0.0
  0
LINE
  5
47C
330
2BC
100
AcDbEntity
  8
Fills_ Pattern_Pen_No__153
  6
Continuous
100
AcDbLine
 10
1557.596848520265
 20
-491.7314610359762
 30
0.0
 11
1556.865875998222
 21
-493.1934060800631
 31
0.0
  0
LINE
  5
47D
330
2BC
100
AcDbEntity
  8
Fills_ Pattern_Pen_No__153
  6
Continuous
100
AcDbLine
 10
1507.596848520265
 20
-441.7314610359762
 30
0.0
 11
1506.865875998221
 21
-443.1934060800631
 31
0.0
  0
LINE
  5
47E
330
2BC
100
AcDbEntity
  8
Fills_ Pattern_Pen_No__153
  6
Continuous
100
AcDbLine
 10
1557.596848520265
 20
-441.7314610359762
 30
0.0
 11
1556.865875998222
 21
-443.1934060800631
 31
0.0
  0
LINE
  5
47F
330
2BC
100
AcDbEntity
  8
Fills_ Pattern_Pen_No__153
  6
Continuous
100
AcDbLine
 10
1507.596848520265
 20
-391.7314610359762
 30
0.0
 11
1506.865875998221
 21
-393.1934060800631
 31
0.0
  0
LINE
  5
480
330
2BC
100
AcDbEntity
  8
Fills_ Pattern_Pen_No__153
  6
Continuous
100
AcDbLine
 10
1557.596848520265
 20
-391.7314610359762
 30
0.0
 11
1556.865875998222
 21
-393.1934060800631
 31
0.0
  0
LINE
  5
481
330
2BC
100
AcDbEntity
  8
Fills_ Pattern_Pen_No__153
  6
Continuous
100
AcDbLine
 10
1556.865875998222
 20
-493.1934060800631
 30
0.0
 11
1558.510564172819
 21
-492.8279198190413
 31
0.0
  0
LINE
  5
482
330
2BC
100
AcDbEntity
  8
Fills_ Pattern_Pen_No__153
  6
Continuous
100
AcDbLine
 10
1506.865875998221
 20
-443.1934060800631
 30
0.0
 11
1508.510564172819
 21
-442.8279198190414
 31
0.0
  0
LINE
  5
483
330
2BC
100
AcDbEntity
  8
Fills_ Pattern_Pen_No__153
  6
Continuous
100
AcDbLine
 10
1556.865875998222
 20
-443.1934060800631
 30
0.0
 11
1558.510564172819
 21
-442.8279198190414
 31
0.0
  0
LINE
  5
484
330
2BC
100
AcDbEntity
  8
Fills_ Pattern_Pen_No__153
  6
Continuous
100
AcDbLine
 10
1458.283698299975
 20
-392.8783344574512
 30
0.0
 11
1458.510564172819
 21
-392.8279198190414
 31
0.0
  0
LINE
  5
485
330
2BC
100
AcDbEntity
  8
Fills_ Pattern_Pen_No__153
  6
Continuous
100
AcDbLine
 10
1506.865875998221
 20
-393.1934060800631
 30
0.0
 11
1508.510564172819
 21
-392.8279198190414
 31
0.0
  0
LINE
  5
486
330
2BC
100
AcDbEntity
  8
Fills_ Pattern_Pen_No__153
  6
Continuous
100
AcDbLine
 10
1556.865875998222
 20
-393.1934060800631
 30
0.0
 11
1558.510564172819
 21
-392.8279198190414
 31
0.0
  0
LINE
  5
487
330
2BC
100
AcDbEntity
  8
Fills_ Pattern_Pen_No__153
  6
Continuous
100
AcDbLine
 10
1558.510564172819
 20
-492.8279198190413
 30
0.0
 11
1557.596848520265
 21
-491.7314610359762
 31
0.0
  0
LINE
  5
488
330
2BC
100
AcDbEntity
  8
Fills_ Pattern_Pen_No__153
  6
Continuous
100
AcDbLine
 10
1508.510564172819
 20
-442.8279198190414
 30
0.0
 11
1507.596848520265
 21
-441.7314610359762
 31
0.0
  0
LINE
  5
489
330
2BC
100
AcDbEntity
  8
Fills_ Pattern_Pen_No__153
  6
Continuous
100
AcDbLine
 10
1558.510564172819
 20
-442.8279198190414
 30
0.0
 11
1557.596848520265
 21
-441.7314610359762
 31
0.0
  0
LINE
  5
48A
330
2BC
100
AcDbEntity
  8
Fills_ Pattern_Pen_No__153
  6
Continuous
100
AcDbLine
 10
1458.510564172819
 20
-392.8279198190414
 30
0.0
 11
1457.986844504156
 21
-392.1994562166461
 31
0.0
  0
LINE
  5
48B
330
2BC
100
AcDbEntity
  8
Fills_ Pattern_Pen_No__153
  6
Continuous
100
AcDbLine
 10
1508.510564172819
 20
-392.8279198190414
 30
0.0
 11
1507.596848520265
 21
-391.7314610359762
 31
0.0
  0
LINE
  5
48C
330
2BC
100
AcDbEntity
  8
Fills_ Pattern_Pen_No__153
  6
Continuous
100
AcDbLine
 10
1558.510564172819
 20
-392.8279198190414
 30
0.0
 11
1557.596848520265
 21
-391.7314610359762
 31
0.0
  0
LINE
  5
48D
330
2BC
100
AcDbEntity
  8
Fills_ Pattern_Pen_No__153
  6
Continuous
100
AcDbLine
 10
1520.786211790674
 20
-490.3115950022043
 30
0.0
 11
1521.005022644312
 21
-490.8586221362994
 31
0.0
  0
LINE
  5
48E
330
2BC
100
AcDbEntity
  8
Fills_ Pattern_Pen_No__153
  6
Continuous
100
AcDbLine
 10
1570.786211790674
 20
-490.3115950022043
 30
0.0
 11
1571.005022644313
 21
-490.8586221362994
 31
0.0
  0
LINE
  5
48F
330
2BC
100
AcDbEntity
  8
Fills_ Pattern_Pen_No__153
  6
Continuous
100
AcDbLine
 10
1520.786211790674
 20
-440.3115950022043
 30
0.0
 11
1521.005022644312
 21
-440.8586221362993
 31
0.0
  0
LINE
  5
490
330
2BC
100
AcDbEntity
  8
Fills_ Pattern_Pen_No__153
  6
Continuous
100
AcDbLine
 10
1570.786211790674
 20
-440.3115950022043
 30
0.0
 11
1571.005022644313
 21
-440.8586221362993
 31
0.0
  0
LINE
  5
491
330
2BC
100
AcDbEntity
  8
Fills_ Pattern_Pen_No__153
  6
Continuous
100
AcDbLine
 10
1470.786211790674
 20
-390.3115950022044
 30
0.0
 11
1471.005022644312
 21
-390.8586221362994
 31
0.0
  0
LINE
  5
492
330
2BC
100
AcDbEntity
  8
Fills_ Pattern_Pen_No__153
  6
Continuous
100
AcDbLine
 10
1520.786211790674
 20
-390.3115950022044
 30
0.0
 11
1521.005022644312
 21
-390.8586221362994
 31
0.0
  0
LINE
  5
493
330
2BC
100
AcDbEntity
  8
Fills_ Pattern_Pen_No__153
  6
Continuous
100
AcDbLine
 10
1570.786211790674
 20
-390.3115950022044
 30
0.0
 11
1571.005022644313
 21
-390.8586221362994
 31
0.0
  0
LINE
  5
494
330
2BC
100
AcDbEntity
  8
Fills_ Pattern_Pen_No__153
  6
Continuous
100
AcDbLine
 10
1526.904039416673
 20
-499.8353259561225
 30
0.0
 11
1527.098080663401
 21
-500.1587280340014
 31
0.0
  0
LINE
  5
495
330
2BC
100
AcDbEntity
  8
Fills_ Pattern_Pen_No__153
  6
Continuous
100
AcDbLine
 10
1576.904039416674
 20
-499.8353259561225
 30
0.0
 11
1577.098080663401
 21
-500.1587280340014
 31
0.0
  0
LINE
  5
496
330
2BC
100
AcDbEntity
  8
Fills_ Pattern_Pen_No__153
  6
Continuous
100
AcDbLine
 10
1526.904039416673
 20
-449.8353259561225
 30
0.0
 11
1527.098080663401
 21
-450.1587280340014
 31
0.0
  0
LINE
  5
497
330
2BC
100
AcDbEntity
  8
Fills_ Pattern_Pen_No__153
  6
Continuous
100
AcDbLine
 10
1576.904039416674
 20
-449.8353259561225
 30
0.0
 11
1577.098080663401
 21
-450.1587280340014
 31
0.0
  0
LINE
  5
498
330
2BC
100
AcDbEntity
  8
Fills_ Pattern_Pen_No__153
  6
Continuous
100
AcDbLine
 10
1476.904039416673
 20
-399.8353259561225
 30
0.0
 11
1477.098080663401
 21
-400.1587280340015
 31
0.0
  0
LINE
  5
499
330
2BC
100
AcDbEntity
  8
Fills_ Pattern_Pen_No__153
  6
Continuous
100
AcDbLine
 10
1526.904039416673
 20
-399.8353259561225
 30
0.0
 11
1527.098080663401
 21
-400.1587280340015
 31
0.0
  0
LINE
  5
49A
330
2BC
100
AcDbEntity
  8
Fills_ Pattern_Pen_No__153
  6
Continuous
100
AcDbLine
 10
1576.904039416674
 20
-399.8353259561225
 30
0.0
 11
1577.098080663401
 21
-400.1587280340015
 31
0.0
  0
LINE
  5
49B
330
2BC
100
AcDbEntity
  8
Fills_ Pattern_Pen_No__153
  6
Continuous
100
AcDbLine
 10
1518.054423306448
 20
-483.0753879592665
 30
0.0
 11
1516.127925416316
 21
-483.5635021442318
 31
0.0
  0
LINE
  5
49C
330
2BC
100
AcDbEntity
  8
Fills_ Pattern_Pen_No__153
  6
Continuous
100
AcDbLine
 10
1568.054423306448
 20
-483.0753879592665
 30
0.0
 11
1566.127925416316
 21
-483.5635021442318
 31
0.0
  0
LINE
  5
49D
330
2BC
100
AcDbEntity
  8
Fills_ Pattern_Pen_No__153
  6
Continuous
100
AcDbLine
 10
1518.054423306448
 20
-433.0753879592666
 30
0.0
 11
1516.127925416316
 21
-433.5635021442318
 31
0.0
  0
LINE
  5
49E
330
2BC
100
AcDbEntity
  8
Fills_ Pattern_Pen_No__153
  6
Continuous
100
AcDbLine
 10
1568.054423306448
 20
-433.0753879592666
 30
0.0
 11
1566.127925416316
 21
-433.5635021442318
 31
0.0
  0
LINE
  5
49F
330
2BC
100
AcDbEntity
  8
Fills_ Pattern_Pen_No__153
  6
Continuous
100
AcDbLine
 10
1468.054423306448
 20
-383.0753879592667
 30
0.0
 11
1466.127925416316
 21
-383.5635021442318
 31
0.0
  0
LINE
  5
4A0
330
2BC
100
AcDbEntity
  8
Fills_ Pattern_Pen_No__153
  6
Continuous
100
AcDbLine
 10
1518.054423306448
 20
-383.0753879592667
 30
0.0
 11
1516.127925416316
 21
-383.5635021442318
 31
0.0
  0
LINE
  5
4A1
330
2BC
100
AcDbEntity
  8
Fills_ Pattern_Pen_No__153
  6
Continuous
100
AcDbLine
 10
1568.054423306448
 20
-383.0753879592667
 30
0.0
 11
1566.127925416316
 21
-383.5635021442318
 31
0.0
  0
LINE
  5
4A2
330
2BC
100
AcDbEntity
  8
Fills_ Pattern_Pen_No__153
  6
Continuous
100
AcDbLine
 10
1516.127925416316
 20
-483.5635021442318
 30
0.0
 11
1517.89688656618
 21
-484.7498984106458
 31
0.0
  0
LINE
  5
4A3
330
2BC
100
AcDbEntity
  8
Fills_ Pattern_Pen_No__153
  6
Continuous
100
AcDbLine
 10
1566.127925416316
 20
-483.5635021442318
 30
0.0
 11
1567.89688656618
 21
-484.7498984106458
 31
0.0
  0
LINE
  5
4A4
330
2BC
100
AcDbEntity
  8
Fills_ Pattern_Pen_No__153
  6
Continuous
100
AcDbLine
 10
1516.127925416316
 20
-433.5635021442318
 30
0.0
 11
1517.89688656618
 21
-434.7498984106458
 31
0.0
  0
LINE
  5
4A5
330
2BC
100
AcDbEntity
  8
Fills_ Pattern_Pen_No__153
  6
Continuous
100
AcDbLine
 10
1566.127925416316
 20
-433.5635021442318
 30
0.0
 11
1567.89688656618
 21
-434.7498984106458
 31
0.0
  0
LINE
  5
4A6
330
2BC
100
AcDbEntity
  8
Fills_ Pattern_Pen_No__153
  6
Continuous
100
AcDbLine
 10
1466.127925416316
 20
-383.5635021442318
 30
0.0
 11
1467.89688656618
 21
-384.7498984106458
 31
0.0
  0
LINE
  5
4A7
330
2BC
100
AcDbEntity
  8
Fills_ Pattern_Pen_No__153
  6
Continuous
100
AcDbLine
 10
1516.127925416316
 20
-383.5635021442318
 30
0.0
 11
1517.89688656618
 21
-384.7498984106458
 31
0.0
  0
LINE
  5
4A8
330
2BC
100
AcDbEntity
  8
Fills_ Pattern_Pen_No__153
  6
Continuous
100
AcDbLine
 10
1566.127925416316
 20
-383.5635021442318
 30
0.0
 11
1567.89688656618
 21
-384.7498984106458
 31
0.0
  0
LINE
  5
4A9
330
2BC
100
AcDbEntity
  8
Fills_ Pattern_Pen_No__153
  6
Continuous
100
AcDbLine
 10
1517.89688656618
 20
-484.7498984106458
 30
0.0
 11
1518.054423306448
 21
-483.0753879592665
 31
0.0
  0
LINE
  5
4AA
330
2BC
100
AcDbEntity
  8
Fills_ Pattern_Pen_No__153
  6
Continuous
100
AcDbLine
 10
1567.89688656618
 20
-484.7498984106458
 30
0.0
 11
1568.054423306448
 21
-483.0753879592665
 31
0.0
  0
LINE
  5
4AB
330
2BC
100
AcDbEntity
  8
Fills_ Pattern_Pen_No__153
  6
Continuous
100
AcDbLine
 10
1517.89688656618
 20
-434.7498984106458
 30
0.0
 11
1518.054423306448
 21
-433.0753879592666
 31
0.0
  0
LINE
  5
4AC
330
2BC
100
AcDbEntity
  8
Fills_ Pattern_Pen_No__153
  6
Continuous
100
AcDbLine
 10
1567.89688656618
 20
-434.7498984106458
 30
0.0
 11
1568.054423306448
 21
-433.0753879592666
 31
0.0
  0
LINE
  5
4AD
330
2BC
100
AcDbEntity
  8
Fills_ Pattern_Pen_No__153
  6
Continuous
100
AcDbLine
 10
1467.89688656618
 20
-384.7498984106458
 30
0.0
 11
1468.054423306448
 21
-383.0753879592667
 31
0.0
  0
LINE
  5
4AE
330
2BC
100
AcDbEntity
  8
Fills_ Pattern_Pen_No__153
  6
Continuous
100
AcDbLine
 10
1517.89688656618
 20
-384.7498984106458
 30
0.0
 11
1518.054423306448
 21
-383.0753879592667
 31
0.0
  0
LINE
  5
4AF
330
2BC
100
AcDbEntity
  8
Fills_ Pattern_Pen_No__153
  6
Continuous
100
AcDbLine
 10
1567.89688656618
 20
-384.7498984106458
 30
0.0
 11
1568.054423306448
 21
-383.0753879592667
 31
0.0
  0
LINE
  5
4B0
330
2BC
100
AcDbEntity
  8
Fills_ Pattern_Pen_No__153
  6
Continuous
100
AcDbLine
 10
1561.504779621482
 20
-495.6161754752502
 30
0.0
 11
1559.394511084844
 21
-495.5730180745478
 31
0.0
  0
LINE
  5
4B1
330
2BC
100
AcDbEntity
  8
Fills_ Pattern_Pen_No__153
  6
Continuous
100
AcDbLine
 10
1511.504779621482
 20
-445.6161754752502
 30
0.0
 11
1509.394511084844
 21
-445.5730180745478
 31
0.0
  0
LINE
  5
4B2
330
2BC
100
AcDbEntity
  8
Fills_ Pattern_Pen_No__153
  6
Continuous
100
AcDbLine
 10
1561.504779621482
 20
-445.6161754752502
 30
0.0
 11
1559.394511084844
 21
-445.5730180745478
 31
0.0
  0
LINE
  5
4B3
330
2BC
100
AcDbEntity
  8
Fills_ Pattern_Pen_No__153
  6
Continuous
100
AcDbLine
 10
1461.504779621482
 20
-395.6161754752502
 30
0.0
 11
1459.647511067849
 21
-395.5781922130306
 31
0.0
  0
LINE
  5
4B4
330
2BC
100
AcDbEntity
  8
Fills_ Pattern_Pen_No__153
  6
Continuous
100
AcDbLine
 10
1511.504779621482
 20
-395.6161754752502
 30
0.0
 11
1509.394511084844
 21
-395.5730180745478
 31
0.0
  0
LINE
  5
4B5
330
2BC
100
AcDbEntity
  8
Fills_ Pattern_Pen_No__153
  6
Continuous
100
AcDbLine
 10
1561.504779621482
 20
-395.6161754752502
 30
0.0
 11
1559.394511084844
 21
-395.5730180745478
 31
0.0
  0
LINE
  5
4B6
330
2BC
100
AcDbEntity
  8
Fills_ Pattern_Pen_No__153
  6
Continuous
100
AcDbLine
 10
1526.775192650881
 20
-478.5477357137831
 30
0.0
 11
1526.556952946857
 21
-478.8553269051319
 31
0.0
  0
LINE
  5
4B7
330
2BC
100
AcDbEntity
  8
Fills_ Pattern_Pen_No__153
  6
Continuous
100
AcDbLine
 10
1576.775192650881
 20
-478.5477357137831
 30
0.0
 11
1576.556952946857
 21
-478.8553269051319
 31
0.0
  0
LINE
  5
4B8
330
2BC
100
AcDbEntity
  8
Fills_ Pattern_Pen_No__153
  6
Continuous
100
AcDbLine
 10
1526.775192650881
 20
-428.5477357137831
 30
0.0
 11
1526.556952946857
 21
-428.8553269051319
 31
0.0
  0
LINE
  5
4B9
330
2BC
100
AcDbEntity
  8
Fills_ Pattern_Pen_No__153
  6
Continuous
100
AcDbLine
 10
1576.775192650881
 20
-428.5477357137831
 30
0.0
 11
1576.556952946857
 21
-428.8553269051319
 31
0.0
  0
LINE
  5
4BA
330
2BC
100
AcDbEntity
  8
Fills_ Pattern_Pen_No__153
  6
Continuous
100
AcDbLine
 10
1476.775192650881
 20
-378.5477357137831
 30
0.0
 11
1476.556952946857
 21
-378.855326905132
 31
0.0
  0
LINE
  5
4BB
330
2BC
100
AcDbEntity
  8
Fills_ Pattern_Pen_No__153
  6
Continuous
100
AcDbLine
 10
1526.775192650881
 20
-378.5477357137831
 30
0.0
 11
1526.556952946857
 21
-378.855326905132
 31
0.0
  0
LINE
  5
4BC
330
2BC
100
AcDbEntity
  8
Fills_ Pattern_Pen_No__153
  6
Continuous
100
AcDbLine
 10
1576.775192650881
 20
-378.5477357137831
 30
0.0
 11
1576.556952946857
 21
-378.855326905132
 31
0.0
  0
LINE
  5
4BD
330
2BC
100
AcDbEntity
  8
Fills_ Pattern_Pen_No__153
  6
Continuous
100
AcDbLine
 10
1560.590797947568
 20
-496.671057206724
 30
0.0
 11
1561.504779621482
 21
-495.6161754752502
 31
0.0
  0
LINE
  5
4BE
330
2BC
100
AcDbEntity
  8
Fills_ Pattern_Pen_No__153
  6
Continuous
100
AcDbLine
 10
1510.590797947568
 20
-446.671057206724
 30
0.0
 11
1511.504779621482
 21
-445.6161754752502
 31
0.0
  0
LINE
  5
4BF
330
2BC
100
AcDbEntity
  8
Fills_ Pattern_Pen_No__153
  6
Continuous
100
AcDbLine
 10
1560.590797947568
 20
-446.671057206724
 30
0.0
 11
1561.504779621482
 21
-445.6161754752502
 31
0.0
  0
LINE
  5
4C0
330
2BC
100
AcDbEntity
  8
Fills_ Pattern_Pen_No__153
  6
Continuous
100
AcDbLine
 10
1460.590797947568
 20
-396.671057206724
 30
0.0
 11
1461.504779621482
 21
-395.6161754752502
 31
0.0
  0
LINE
  5
4C1
330
2BC
100
AcDbEntity
  8
Fills_ Pattern_Pen_No__153
  6
Continuous
100
AcDbLine
 10
1510.590797947568
 20
-396.671057206724
 30
0.0
 11
1511.504779621482
 21
-395.6161754752502
 31
0.0
  0
LINE
  5
4C2
330
2BC
100
AcDbEntity
  8
Fills_ Pattern_Pen_No__153
  6
Continuous
100
AcDbLine
 10
1560.590797947568
 20
-396.671057206724
 30
0.0
 11
1561.504779621482
 21
-395.6161754752502
 31
0.0
  0
LINE
  5
4C3
330
2BC
100
AcDbEntity
  8
Fills_ Pattern_Pen_No__153
  6
Continuous
100
AcDbLine
 10
1559.394511084844
 20
-495.5730180745478
 30
0.0
 11
1560.590797947568
 21
-496.671057206724
 31
0.0
  0
LINE
  5
4C4
330
2BC
100
AcDbEntity
  8
Fills_ Pattern_Pen_No__153
  6
Continuous
100
AcDbLine
 10
1509.394511084844
 20
-445.5730180745478
 30
0.0
 11
1510.590797947568
 21
-446.671057206724
 31
0.0
  0
LINE
  5
4C5
330
2BC
100
AcDbEntity
  8
Fills_ Pattern_Pen_No__153
  6
Continuous
100
AcDbLine
 10
1559.394511084844
 20
-445.5730180745478
 30
0.0
 11
1560.590797947568
 21
-446.671057206724
 31
0.0
  0
LINE
  5
4C6
330
2BC
100
AcDbEntity
  8
Fills_ Pattern_Pen_No__153
  6
Continuous
100
AcDbLine
 10
1459.86135053779
 20
-396.0015172947191
 30
0.0
 11
1460.590797947568
 21
-396.671057206724
 31
0.0
  0
LINE
  5
4C7
330
2BC
100
AcDbEntity
  8
Fills_ Pattern_Pen_No__153
  6
Continuous
100
AcDbLine
 10
1509.394511084844
 20
-395.5730180745478
 30
0.0
 11
1510.590797947568
 21
-396.671057206724
 31
0.0
  0
LINE
  5
4C8
330
2BC
100
AcDbEntity
  8
Fills_ Pattern_Pen_No__153
  6
Continuous
100
AcDbLine
 10
1559.394511084844
 20
-395.5730180745478
 30
0.0
 11
1560.590797947568
 21
-396.671057206724
 31
0.0
  0
LINE
  5
4C9
330
2BC
100
AcDbEntity
  8
Fills_ Pattern_Pen_No__153
  6
Continuous
100
AcDbLine
 10
1530.828270080473
 20
-486.7628082652974
 30
0.0
 11
1529.19583741635
 21
-486.6805420084368
 31
0.0
  0
LINE
  5
4CA
330
2BC
100
AcDbEntity
  8
Fills_ Pattern_Pen_No__153
  6
Continuous
100
AcDbLine
 10
1580.137033051608
 20
-486.727973454516
 30
0.0
 11
1579.19583741635
 21
-486.6805420084368
 31
0.0
  0
LINE
  5
4CB
330
2BC
100
AcDbEntity
  8
Fills_ Pattern_Pen_No__153
  6
Continuous
100
AcDbLine
 10
1530.828270080473
 20
-436.7628082652974
 30
0.0
 11
1529.19583741635
 21
-436.6805420084368
 31
0.0
  0
LINE
  5
4CC
330
2BC
100
AcDbEntity
  8
Fills_ Pattern_Pen_No__153
  6
Continuous
100
AcDbLine
 10
1580.137033051608
 20
-436.727973454516
 30
0.0
 11
1579.19583741635
 21
-436.6805420084368
 31
0.0
  0
LINE
  5
4CD
330
2BC
100
AcDbEntity
  8
Fills_ Pattern_Pen_No__153
  6
Continuous
100
AcDbLine
 10
1480.828270080473
 20
-386.7628082652974
 30
0.0
 11
1479.19583741635
 21
-386.6805420084368
 31
0.0
  0
LINE
  5
4CE
330
2BC
100
AcDbEntity
  8
Fills_ Pattern_Pen_No__153
  6
Continuous
100
AcDbLine
 10
1530.828270080473
 20
-386.7628082652974
 30
0.0
 11
1529.19583741635
 21
-386.6805420084368
 31
0.0
  0
LINE
  5
4CF
330
2BC
100
AcDbEntity
  8
Fills_ Pattern_Pen_No__153
  6
Continuous
100
AcDbLine
 10
1580.137033051608
 20
-386.727973454516
 30
0.0
 11
1579.19583741635
 21
-386.6805420084368
 31
0.0
  0
LINE
  5
4D0
330
2BC
100
AcDbEntity
  8
Fills_ Pattern_Pen_No__153
  6
Continuous
100
AcDbLine
 10
1529.19583741635
 20
-486.6805420084368
 30
0.0
 11
1530.191105642541
 21
-488.0399612066944
 31
0.0
  0
LINE
  5
4D1
330
2BC
100
AcDbEntity
  8
Fills_ Pattern_Pen_No__153
  6
Continuous
100
AcDbLine
 10
1579.19583741635
 20
-486.6805420084368
 30
0.0
 11
1580.137033051608
 21
-487.9661044148472
 31
0.0
  0
LINE
  5
4D2
330
2BC
100
AcDbEntity
  8
Fills_ Pattern_Pen_No__153
  6
Continuous
100
AcDbLine
 10
1529.19583741635
 20
-436.6805420084368
 30
0.0
 11
1530.191105642541
 21
-438.0399612066944
 31
0.0
  0
LINE
  5
4D3
330
2BC
100
AcDbEntity
  8
Fills_ Pattern_Pen_No__153
  6
Continuous
100
AcDbLine
 10
1579.19583741635
 20
-436.6805420084368
 30
0.0
 11
1580.137033051608
 21
-437.9661044148472
 31
0.0
  0
LINE
  5
4D4
330
2BC
100
AcDbEntity
  8
Fills_ Pattern_Pen_No__153
  6
Continuous
100
AcDbLine
 10
1479.19583741635
 20
-386.6805420084368
 30
0.0
 11
1480.191105642541
 21
-388.0399612066944
 31
0.0
  0
LINE
  5
4D5
330
2BC
100
AcDbEntity
  8
Fills_ Pattern_Pen_No__153
  6
Continuous
100
AcDbLine
 10
1529.19583741635
 20
-386.6805420084368
 30
0.0
 11
1530.191105642541
 21
-388.0399612066944
 31
0.0
  0
LINE
  5
4D6
330
2BC
100
AcDbEntity
  8
Fills_ Pattern_Pen_No__153
  6
Continuous
100
AcDbLine
 10
1579.19583741635
 20
-386.6805420084368
 30
0.0
 11
1580.137033051608
 21
-387.9661044148472
 31
0.0
  0
LINE
  5
4D7
330
2BC
100
AcDbEntity
  8
Fills_ Pattern_Pen_No__153
  6
Continuous
100
AcDbLine
 10
1530.191105642541
 20
-488.0399612066944
 30
0.0
 11
1530.828270080473
 21
-486.7628082652974
 31
0.0
  0
LINE
  5
4D8
330
2BC
100
AcDbEntity
  8
Fills_ Pattern_Pen_No__153
  6
Continuous
100
AcDbLine
 10
1530.191105642541
 20
-438.0399612066944
 30
0.0
 11
1530.828270080473
 21
-436.7628082652974
 31
0.0
  0
LINE
  5
4D9
330
2BC
100
AcDbEntity
  8
Fills_ Pattern_Pen_No__153
  6
Continuous
100
AcDbLine
 10
1480.191105642541
 20
-388.0399612066944
 30
0.0
 11
1480.828270080473
 21
-386.7628082652974
 31
0.0
  0
LINE
  5
4DA
330
2BC
100
AcDbEntity
  8
Fills_ Pattern_Pen_No__153
  6
Continuous
100
AcDbLine
 10
1530.191105642541
 20
-388.0399612066944
 30
0.0
 11
1530.828270080473
 21
-386.7628082652974
 31
0.0
  0
ENDBLK
  5
4DB
330
2BC
100
AcDbEntity
  8
0
100
AcDbBlockEnd
  0
BLOCK
  5
4DD
330
4DC
100
AcDbEntity
  8
0
100
AcDbBlockBegin
  2
Fill_3
 70
     0
 10
0.0
 20
0.0
 30
0.0
  3
Fill_3
  1

  0
INSERT
  5
4DE
330
4DC
100
AcDbEntity
  8
Fills_ Pattern_Pen_No__153
  6
Continuous
100
AcDbBlockReference
  2
*X20
 10
0.0
 20
0.0
 30
0.0
  0
LINE
  5
4DF
330
4DC
100
AcDbEntity
  8
Fills_ Pattern_Pen_No__2
  6
Continuous
100
AcDbLine
 10
1611.789636366214
 20
-331.6394728789111
 30
0.0
 11
1609.137033051616
 21
-331.6394728789111
 31
0.0
  0
LINE
  5
4E0
330
4DC
100
AcDbEntity
  8
Fills_ Pattern_Pen_No__2
  6
Continuous
100
AcDbLine
 10
1609.137033051616
 20
-331.6394728789111
 30
0.0
 11
1609.137033051616
 21
-366.6394728789111
 31
0.0
  0
LINE
  5
4E1
330
4DC
100
AcDbEntity
  8
Fills_ Pattern_Pen_No__2
  6
Continuous
100
AcDbLine
 10
1609.137033051616
 20
-366.6394728789111
 30
0.0
 11
1617.947043773621
 21
-366.6394728789111
 31
0.0
  0
LINE
  5
4E2
330
4DC
100
AcDbEntity
  8
Fills_ Pattern_Pen_No__2
  6
Continuous
100
AcDbLine
 10
1617.947043773621
 20
-366.6394728789111
 30
0.0
 11
1611.789636366214
 21
-331.6394728789111
 31
0.0
  0
ENDBLK
  5
4E3
330
4DC
100
AcDbEntity
  8
0
100
AcDbBlockEnd
  0
BLOCK
  5
4E5
330
4E4
100
AcDbEntity
  8
0
100
AcDbBlockBegin
  2
*X20
 70
     1
 10
0.0
 20
0.0
 30
0.0
  3
*X20
  1

  0
LINE
  5
4E6
330
4E4
100
AcDbEntity
  8
Fills_ Pattern_Pen_No__153
  6
Continuous
100
AcDbLine
 10
1612.318139070491
 20
-366.6394728789111
 30
0.0
 11
1612.472627508937
 21
-366.4258107289157
 31
0.0
  0
LINE
  5
4E7
330
4E4
100
AcDbEntity
  8
Fills_ Pattern_Pen_No__153
  6
Continuous
100
AcDbLine
 10
1612.472627508937
 20
-366.4258107289157
 30
0.0
 11
1613.555761957685
 21
-364.9742666362716
 31
0.0
  0
LINE
  5
4E8
330
4E4
100
AcDbEntity
  8
Fills_ Pattern_Pen_No__153
  6
Continuous
100
AcDbLine
 10
1614.554197701881
 20
-366.6394728789111
 30
0.0
 11
1614.760452487658
 21
-366.3555587102469
 31
0.0
  0
LINE
  5
4E9
330
4E4
100
AcDbEntity
  8
Fills_ Pattern_Pen_No__153
  6
Continuous
100
AcDbLine
 10
1614.760452487658
 20
-366.3555587102469
 30
0.0
 11
1616.936137036054
 21
-363.5045358720874
 31
0.0
  0
LINE
  5
4EA
330
4E4
100
AcDbEntity
  8
Fills_ Pattern_Pen_No__153
  6
Continuous
100
AcDbLine
 10
1609.137033051616
 20
-358.7859369970111
 30
0.0
 11
1610.470352628885
 21
-357.0387514649175
 31
0.0
  0
LINE
  5
4EB
330
4E4
100
AcDbEntity
  8
Fills_ Pattern_Pen_No__153
  6
Continuous
100
AcDbLine
 10
1616.936137036054
 20
-363.5045358720874
 30
0.0
 11
1617.312810021701
 21
-363.0343547101012
 31
0.0
  0
LINE
  5
4EC
330
4E4
100
AcDbEntity
  8
Fills_ Pattern_Pen_No__153
  6
Continuous
100
AcDbLine
 10
1610.470352628885
 20
-357.0387514649175
 30
0.0
 11
1612.712646384517
 21
-354.2398135964947
 31
0.0
  0
LINE
  5
4ED
330
4E4
100
AcDbEntity
  8
Fills_ Pattern_Pen_No__153
  6
Continuous
100
AcDbLine
 10
1612.712646384517
 20
-354.2398135964947
 30
0.0
 11
1615.020302911868
 21
-351.494516557991
 31
0.0
  0
LINE
  5
4EE
330
4E4
100
AcDbEntity
  8
Fills_ Pattern_Pen_No__153
  6
Continuous
100
AcDbLine
 10
1615.020302911868
 20
-351.494516557991
 30
0.0
 11
1615.239011518223
 21
-351.2464474271748
 31
0.0
  0
LINE
  5
4EF
330
4E4
100
AcDbEntity
  8
Fills_ Pattern_Pen_No__153
  6
Continuous
100
AcDbLine
 10
1609.137033051616
 20
-344.368017971578
 30
0.0
 11
1610.926255034704
 21
-342.3386019848117
 31
0.0
  0
LINE
  5
4F0
330
4E4
100
AcDbEntity
  8
Fills_ Pattern_Pen_No__153
  6
Continuous
100
AcDbLine
 10
1610.926255034704
 20
-342.3386019848117
 30
0.0
 11
1611.269115512326
 21
-341.9538593178633
 31
0.0
  0
LINE
  5
4F1
330
4E4
100
AcDbEntity
  8
Fills_ Pattern_Pen_No__153
  6
Continuous
100
AcDbLine
 10
1611.269115512326
 20
-341.9538593178633
 30
0.0
 11
1611.606969239082
 21
-341.5647127051283
 31
0.0
  0
LINE
  5
4F2
330
4E4
100
AcDbEntity
  8
Fills_ Pattern_Pen_No__153
  6
Continuous
100
AcDbLine
 10
1611.606969239082
 20
-341.5647127051283
 30
0.0
 11
1611.939759652962
 21
-341.1712272958494
 31
0.0
  0
LINE
  5
4F3
330
4E4
100
AcDbEntity
  8
Fills_ Pattern_Pen_No__153
  6
Continuous
100
AcDbLine
 10
1611.939759652962
 20
-341.1712272958494
 30
0.0
 11
1612.267431039635
 21
-340.7734689656515
 31
0.0
  0
LINE
  5
4F4
330
4E4
100
AcDbEntity
  8
Fills_ Pattern_Pen_No__153
  6
Continuous
100
AcDbLine
 10
1612.267431039635
 20
-340.7734689656515
 30
0.0
 11
1612.589928541774
 21
-340.3715043055135
 31
0.0
  0
LINE
  5
4F5
330
4E4
100
AcDbEntity
  8
Fills_ Pattern_Pen_No__153
  6
Continuous
100
AcDbLine
 10
1612.589928541774
 20
-340.3715043055135
 30
0.0
 11
1612.907198168243
 21
-339.9654006106202
 31
0.0
  0
LINE
  5
4F6
330
4E4
100
AcDbEntity
  8
Fills_ Pattern_Pen_No__153
  6
Continuous
100
AcDbLine
 10
1612.907198168243
 20
-339.9654006106202
 30
0.0
 11
1613.189166082832
 21
-339.5946944260012
 31
0.0
  0
LINE
  5
4F7
330
4E4
100
AcDbEntity
  8
Fills_ Pattern_Pen_No__153
  6
Continuous
100
AcDbLine
 10
1609.137033051616
 20
-362.9283820170373
 30
0.0
 11
1610.32860477312
 21
-361.2549916001944
 31
0.0
  0
LINE
  5
4F8
330
4E4
100
AcDbEntity
  8
Fills_ Pattern_Pen_No__153
  6
Continuous
100
AcDbLine
 10
1617.564930885551
 20
-366.6394728789111
 30
0.0
 11
1617.871386772371
 21
-366.2094225560161
 31
0.0
  0
LINE
  5
4F9
330
4E4
100
AcDbEntity
  8
Fills_ Pattern_Pen_No__153
  6
Continuous
100
AcDbLine
 10
1610.32860477312
 20
-361.2549916001944
 30
0.0
 11
1612.041103475758
 21
-358.8518378292932
 31
0.0
  0
LINE
  5
4FA
330
4E4
100
AcDbEntity
  8
Fills_ Pattern_Pen_No__153
  6
Continuous
100
AcDbLine
 10
1612.041103475758
 20
-358.8518378292932
 30
0.0
 11
1613.754453937338
 21
-356.449291253483
 31
0.0
  0
LINE
  5
4FB
330
4E4
100
AcDbEntity
  8
Fills_ Pattern_Pen_No__153
  6
Continuous
100
AcDbLine
 10
1613.754453937338
 20
-356.449291253483
 30
0.0
 11
1615.468655942571
 21
-354.0473521746581
 31
0.0
  0
LINE
  5
4FC
330
4E4
100
AcDbEntity
  8
Fills_ Pattern_Pen_No__153
  6
Continuous
100
AcDbLine
 10
1615.468655942571
 20
-354.0473521746581
 30
0.0
 11
1615.679818128072
 21
-353.7520849989438
 31
0.0
  0
LINE
  5
4FD
330
4E4
100
AcDbEntity
  8
Fills_ Pattern_Pen_No__153
  6
Continuous
100
AcDbLine
 10
1609.137033051616
 20
-347.3939702964336
 30
0.0
 11
1609.91446894083
 21
-346.306885036529
 31
0.0
  0
LINE
  5
4FE
330
4E4
100
AcDbEntity
  8
Fills_ Pattern_Pen_No__153
  6
Continuous
100
AcDbLine
 10
1609.91446894083
 20
-346.306885036529
 30
0.0
 11
1610.828114923561
 21
-345.0336698495206
 31
0.0
  0
LINE
  5
4FF
330
4E4
100
AcDbEntity
  8
Fills_ Pattern_Pen_No__153
  6
Continuous
100
AcDbLine
 10
1610.828114923561
 20
-345.0336698495206
 30
0.0
 11
1611.743807121059
 21
-343.761925498784
 31
0.0
  0
LINE
  5
500
330
4E4
100
AcDbEntity
  8
Fills_ Pattern_Pen_No__153
  6
Continuous
100
AcDbLine
 10
1611.743807121059
 20
-343.761925498784
 30
0.0
 11
1612.661543165497
 21
-342.4916552728368
 31
0.0
  0
LINE
  5
501
330
4E4
100
AcDbEntity
  8
Fills_ Pattern_Pen_No__153
  6
Continuous
100
AcDbLine
 10
1612.661543165497
 20
-342.4916552728368
 30
0.0
 11
1613.496248538948
 21
-341.3402157555034
 31
0.0
  0
LINE
  5
502
330
4E4
100
AcDbEntity
  8
Fills_ Pattern_Pen_No__153
  6
Continuous
100
AcDbLine
 10
1609.137033051616
 20
-331.9838383707843
 30
0.0
 11
1609.389214841276
 21
-331.6394728789111
 31
0.0
  0
LINE
  5
503
330
4E4
100
AcDbEntity
  8
Fills_ Pattern_Pen_No__153
  6
Continuous
100
AcDbLine
 10
1609.137033051616
 20
-365.5269431455075
 30
0.0
 11
1609.452406121038
 21
-365.0722253990962
 31
0.0
  0
LINE
  5
504
330
4E4
100
AcDbEntity
  8
Fills_ Pattern_Pen_No__153
  6
Continuous
100
AcDbLine
 10
1609.452406121038
 20
-365.0722253990962
 30
0.0
 11
1611.108106917254
 21
-362.7380437809908
 31
0.0
  0
LINE
  5
505
330
4E4
100
AcDbEntity
  8
Fills_ Pattern_Pen_No__153
  6
Continuous
100
AcDbLine
 10
1611.108106917254
 20
-362.7380437809908
 30
0.0
 11
1612.788386609394
 21
-360.4214926572133
 31
0.0
  0
LINE
  5
506
330
4E4
100
AcDbEntity
  8
Fills_ Pattern_Pen_No__153
  6
Continuous
100
AcDbLine
 10
1612.788386609394
 20
-360.4214926572133
 30
0.0
 11
1614.493057477082
 21
-358.1228308322055
 31
0.0
  0
LINE
  5
507
330
4E4
100
AcDbEntity
  8
Fills_ Pattern_Pen_No__153
  6
Continuous
100
AcDbLine
 10
1614.493057477082
 20
-358.1228308322055
 30
0.0
 11
1616.08038946866
 21
-356.0290168296547
 31
0.0
  0
LINE
  5
508
330
4E4
100
AcDbEntity
  8
Fills_ Pattern_Pen_No__153
  6
Continuous
100
AcDbLine
 10
1609.137033051616
 20
-350.1931869416438
 30
0.0
 11
1609.756144667796
 21
-349.3765307046512
 31
0.0
  0
LINE
  5
509
330
4E4
100
AcDbEntity
  8
Fills_ Pattern_Pen_No__153
  6
Continuous
100
AcDbLine
 10
1609.756144667796
 20
-349.3765307046512
 30
0.0
 11
1611.09449367322
 21
-347.1260282542659
 31
0.0
  0
LINE
  5
50A
330
4E4
100
AcDbEntity
  8
Fills_ Pattern_Pen_No__153
  6
Continuous
100
AcDbLine
 10
1611.09449367322
 20
-347.1260282542659
 30
0.0
 11
1612.451326851044
 21
-344.886621398184
 31
0.0
  0
LINE
  5
50B
330
4E4
100
AcDbEntity
  8
Fills_ Pattern_Pen_No__153
  6
Continuous
100
AcDbLine
 10
1612.451326851044
 20
-344.886621398184
 30
0.0
 11
1613.749986371064
 21
-342.7825150117428
 31
0.0
  0
LINE
  5
50C
330
4E4
100
AcDbEntity
  8
Fills_ Pattern_Pen_No__153
  6
Continuous
100
AcDbLine
 10
1609.137033051616
 20
-333.3780503532812
 30
0.0
 11
1610.166020961485
 21
-331.7707043013736
 31
0.0
  0
LINE
  5
50D
330
4E4
100
AcDbEntity
  8
Fills_ Pattern_Pen_No__153
  6
Continuous
100
AcDbLine
 10
1610.166020961485
 20
-331.7707043013736
 30
0.0
 11
1610.251563894683
 21
-331.6394728789111
 31
0.0
  0
LINE
  5
50E
330
4E4
100
AcDbEntity
  8
Fills_ Pattern_Pen_No__153
  6
Continuous
100
AcDbLine
 10
1610.005120990528
 20
-366.6394728789111
 30
0.0
 11
1610.039017348387
 21
-366.5917295620502
 31
0.0
  0
LINE
  5
50F
330
4E4
100
AcDbEntity
  8
Fills_ Pattern_Pen_No__153
  6
Continuous
100
AcDbLine
 10
1610.039017348387
 20
-366.5917295620502
 30
0.0
 11
1611.501202995328
 21
-364.5905307184433
 31
0.0
  0
LINE
  5
510
330
4E4
100
AcDbEntity
  8
Fills_ Pattern_Pen_No__153
  6
Continuous
100
AcDbLine
 10
1611.501202995328
 20
-364.5905307184433
 30
0.0
 11
1612.990505313083
 21
-362.6094294378158
 31
0.0
  0
LINE
  5
511
330
4E4
100
AcDbEntity
  8
Fills_ Pattern_Pen_No__153
  6
Continuous
100
AcDbLine
 10
1612.990505313083
 20
-362.6094294378158
 30
0.0
 11
1614.506648099228
 21
-360.648793130442
 31
0.0
  0
LINE
  5
512
330
4E4
100
AcDbEntity
  8
Fills_ Pattern_Pen_No__153
  6
Continuous
100
AcDbLine
 10
1614.506648099228
 20
-360.648793130442
 30
0.0
 11
1616.049350173573
 21
-358.7089854112117
 31
0.0
  0
LINE
  5
513
330
4E4
100
AcDbEntity
  8
Fills_ Pattern_Pen_No__153
  6
Continuous
100
AcDbLine
 10
1609.137033051616
 20
-352.8046753297968
 30
0.0
 11
1609.583565766404
 21
-352.2432010040419
 31
0.0
  0
LINE
  5
514
330
4E4
100
AcDbEntity
  8
Fills_ Pattern_Pen_No__153
  6
Continuous
100
AcDbLine
 10
1616.049350173573
 20
-358.7089854112117
 30
0.0
 11
1616.462898453525
 21
-358.2032784278356
 31
0.0
  0
LINE
  5
515
330
4E4
100
AcDbEntity
  8
Fills_ Pattern_Pen_No__153
  6
Continuous
100
AcDbLine
 10
1609.583565766404
 20
-352.2432010040419
 30
0.0
 11
1611.152541023135
 21
-350.3245816250254
 31
0.0
  0
LINE
  5
516
330
4E4
100
AcDbEntity
  8
Fills_ Pattern_Pen_No__153
  6
Continuous
100
AcDbLine
 10
1611.152541023135
 20
-350.3245816250254
 30
0.0
 11
1611.683840917718
 21
-349.720604057567
 31
0.0
  0
LINE
  5
517
330
4E4
100
AcDbEntity
  8
Fills_ Pattern_Pen_No__153
  6
Continuous
100
AcDbLine
 10
1611.683840917718
 20
-349.720604057567
 30
0.0
 11
1612.179980162729
 21
-349.0874260971655
 31
0.0
  0
LINE
  5
518
330
4E4
100
AcDbEntity
  8
Fills_ Pattern_Pen_No__153
  6
Continuous
100
AcDbLine
 10
1612.179980162729
 20
-349.0874260971655
 30
0.0
 11
1612.6393570695
 21
-348.4270918352176
 31
0.0
  0
LINE
  5
519
330
4E4
100
AcDbEntity
  8
Fills_ Pattern_Pen_No__153
  6
Continuous
100
AcDbLine
 10
1612.6393570695
 20
-348.4270918352176
 30
0.0
 11
1613.060488629399
 21
-347.7417330319359
 31
0.0
  0
LINE
  5
51A
330
4E4
100
AcDbEntity
  8
Fills_ Pattern_Pen_No__153
  6
Continuous
100
AcDbLine
 10
1613.060488629399
 20
-347.7417330319359
 30
0.0
 11
1613.442015301421
 21
-347.0335622343786
 31
0.0
  0
LINE
  5
51B
330
4E4
100
AcDbEntity
  8
Fills_ Pattern_Pen_No__153
  6
Continuous
100
AcDbLine
 10
1613.442015301421
 20
-347.0335622343786
 30
0.0
 11
1613.782705401213
 21
-346.3048656336721
 31
0.0
  0
LINE
  5
51C
330
4E4
100
AcDbEntity
  8
Fills_ Pattern_Pen_No__153
  6
Continuous
100
AcDbLine
 10
1613.782705401213
 20
-346.3048656336721
 30
0.0
 11
1614.081459077318
 21
-345.5579956844901
 31
0.0
  0
LINE
  5
51D
330
4E4
100
AcDbEntity
  8
Fills_ Pattern_Pen_No__153
  6
Continuous
100
AcDbLine
 10
1614.081459077318
 20
-345.5579956844901
 30
0.0
 11
1614.184323993029
 21
-345.2513814944885
 31
0.0
  0
LINE
  5
51E
330
4E4
100
AcDbEntity
  8
Fills_ Pattern_Pen_No__153
  6
Continuous
100
AcDbLine
 10
1609.137033051616
 20
-336.1086140280832
 30
0.0
 11
1610.008778215961
 21
-334.6134156648156
 31
0.0
  0
LINE
  5
51F
330
4E4
100
AcDbEntity
  8
Fills_ Pattern_Pen_No__153
  6
Continuous
100
AcDbLine
 10
1610.008778215961
 20
-334.6134156648156
 30
0.0
 11
1611.11025922414
 21
-332.7745767485778
 31
0.0
  0
LINE
  5
520
330
4E4
100
AcDbEntity
  8
Fills_ Pattern_Pen_No__153
  6
Continuous
100
AcDbLine
 10
1611.11025922414
 20
-332.7745767485778
 30
0.0
 11
1611.79385193422
 21
-331.6634350549447
 31
0.0
  0
LINE
  5
521
330
4E4
100
AcDbEntity
  8
Fills_ Pattern_Pen_No__153
  6
Continuous
100
AcDbLine
 10
1613.555761957685
 20
-364.9742666362716
 30
0.0
 11
1614.21699544747
 21
-364.1100186916416
 31
0.0
  0
LINE
  5
522
330
4E4
100
AcDbEntity
  8
Fills_ Pattern_Pen_No__153
  6
Continuous
100
AcDbLine
 10
1614.21699544747
 20
-364.1100186916416
 30
0.0
 11
1614.886007683703
 21
-363.2517781277072
 31
0.0
  0
LINE
  5
523
330
4E4
100
AcDbEntity
  8
Fills_ Pattern_Pen_No__153
  6
Continuous
100
AcDbLine
 10
1614.886007683703
 20
-363.2517781277072
 30
0.0
 11
1615.562744091631
 21
-362.399614955542
 31
0.0
  0
LINE
  5
524
330
4E4
100
AcDbEntity
  8
Fills_ Pattern_Pen_No__153
  6
Continuous
100
AcDbLine
 10
1615.562744091631
 20
-362.399614955542
 30
0.0
 11
1616.247149466405
 21
-361.5535986904554
 31
0.0
  0
LINE
  5
525
330
4E4
100
AcDbEntity
  8
Fills_ Pattern_Pen_No__153
  6
Continuous
100
AcDbLine
 10
1609.137033051616
 20
-355.8842945253377
 30
0.0
 11
1609.781365059235
 21
-355.0878142832856
 31
0.0
  0
LINE
  5
526
330
4E4
100
AcDbEntity
  8
Fills_ Pattern_Pen_No__153
  6
Continuous
100
AcDbLine
 10
1616.247149466405
 20
-361.5535986904554
 30
0.0
 11
1616.91065201649
 21
-360.7484039436396
 31
0.0
  0
LINE
  5
527
330
4E4
100
AcDbEntity
  8
Fills_ Pattern_Pen_No__153
  6
Continuous
100
AcDbLine
 10
1609.781365059235
 20
-355.0878142832856
 30
0.0
 11
1610.473383570407
 21
-354.2480139391523
 31
0.0
  0
LINE
  5
528
330
4E4
100
AcDbEntity
  8
Fills_ Pattern_Pen_No__153
  6
Continuous
100
AcDbLine
 10
1610.473383570407
 20
-354.2480139391523
 30
0.0
 11
1611.172958766486
 21
-353.4144980227829
 31
0.0
  0
LINE
  5
529
330
4E4
100
AcDbEntity
  8
Fills_ Pattern_Pen_No__153
  6
Continuous
100
AcDbLine
 10
1611.172958766486
 20
-353.4144980227829
 30
0.0
 11
1611.880033579545
 21
-352.5873345283345
 31
0.0
  0
LINE
  5
52A
330
4E4
100
AcDbEntity
  8
Fills_ Pattern_Pen_No__153
  6
Continuous
100
AcDbLine
 10
1611.880033579545
 20
-352.5873345283345
 30
0.0
 11
1612.594550329875
 21
-351.7665909317654
 31
0.0
  0
LINE
  5
52B
330
4E4
100
AcDbEntity
  8
Fills_ Pattern_Pen_No__153
  6
Continuous
100
AcDbLine
 10
1612.594550329875
 20
-351.7665909317654
 30
0.0
 11
1613.776772104073
 21
-350.5963679560255
 31
0.0
  0
LINE
  5
52C
330
4E4
100
AcDbEntity
  8
Fills_ Pattern_Pen_No__153
  6
Continuous
100
AcDbLine
 10
1613.776772104073
 20
-350.5963679560255
 30
0.0
 11
1614.880439609625
 21
-349.3517844218562
 31
0.0
  0
LINE
  5
52D
330
4E4
100
AcDbEntity
  8
Fills_ Pattern_Pen_No__153
  6
Continuous
100
AcDbLine
 10
1614.880439609625
 20
-349.3517844218562
 30
0.0
 11
1614.901028259123
 21
-349.3252794280792
 31
0.0
  0
LINE
  5
52E
330
4E4
100
AcDbEntity
  8
Fills_ Pattern_Pen_No__153
  6
Continuous
100
AcDbLine
 10
1609.137033051616
 20
-341.9560400190823
 30
0.0
 11
1609.435101697103
 21
-341.5723185129905
 31
0.0
  0
LINE
  5
52F
330
4E4
100
AcDbEntity
  8
Fills_ Pattern_Pen_No__153
  6
Continuous
100
AcDbLine
 10
1609.435101697103
 20
-341.5723185129905
 30
0.0
 11
1610.368012329901
 21
-340.1950938081764
 31
0.0
  0
LINE
  5
530
330
4E4
100
AcDbEntity
  8
Fills_ Pattern_Pen_No__153
  6
Continuous
100
AcDbLine
 10
1610.368012329901
 20
-340.1950938081764
 30
0.0
 11
1611.209442386112
 21
-338.760149350421
 31
0.0
  0
LINE
  5
531
330
4E4
100
AcDbEntity
  8
Fills_ Pattern_Pen_No__153
  6
Continuous
100
AcDbLine
 10
1611.209442386112
 20
-338.760149350421
 30
0.0
 11
1611.955833967019
 21
-337.273552651821
 31
0.0
  0
LINE
  5
532
330
4E4
100
AcDbEntity
  8
Fills_ Pattern_Pen_No__153
  6
Continuous
100
AcDbLine
 10
1611.955833967019
 20
-337.273552651821
 30
0.0
 11
1612.53853674006
 21
-335.8963802670853
 31
0.0
  0
ENDBLK
  5
533
330
4E4
100
AcDbEntity
  8
0
100
AcDbBlockEnd
  0
BLOCK
  5
535
330
534
100
AcDbEntity
  8
0
100
AcDbBlockBegin
  2
Line_1
 70
     0
 10
1541.13703305161
 20
-357.1255854503157
 30
0.0
  3
Line_1
  1

  0
LINE
  5
536
330
534
100
AcDbEntity
  8
Documentation_ Floor_Pen_No__2
  6
Continuous
100
AcDbLine
 10
1541.13703305161
 20
-357.1255854503157
 30
0.0
 11
1541.13703305161
 21
-517.1255854503158
 31
0.0
  0
LINE
  5
537
330
534
100
AcDbEntity
  8
Documentation_ Floor_Pen_No__2
  6
Continuous
100
AcDbLine
 10
1541.13703305161
 20
-357.1255854503157
 30
0.0
 11
1544.13703305161
 21
-360.1255854503157
 31
0.0
  0
LINE
  5
538
330
534
100
AcDbEntity
  8
Documentation_ Floor_Pen_No__2
  6
Continuous
100
AcDbLine
 10
1541.13703305161
 20
-357.1255854503157
 30
0.0
 11
1538.13703305161
 21
-360.1255854503157
 31
0.0
  0
LINE
  5
539
330
534
100
AcDbEntity
  8
Documentation_ Floor_Pen_No__2
  6
Continuous
100
AcDbLine
 10
1541.13703305161
 20
-517.1255854503158
 30
0.0
 11
1538.13703305161
 21
-514.1255854503158
 31
0.0
  0
LINE
  5
53A
330
534
100
AcDbEntity
  8
Documentation_ Floor_Pen_No__2
  6
Continuous
100
AcDbLine
 10
1541.13703305161
 20
-517.1255854503158
 30
0.0
 11
1544.13703305161
 21
-514.1255854503158
 31
0.0
  0
ENDBLK
  5
53B
330
534
100
AcDbEntity
  8
0
100
AcDbBlockEnd
  0
BLOCK
  5
53D
330
53C
100
AcDbEntity
  8
0
100
AcDbBlockBegin
  2
Line_2
 70
     0
 10
1655.414679149353
 20
-407.1255854503156
 30
0.0
  3
Line_2
  1

  0
LINE
  5
53E
330
53C
100
AcDbEntity
  8
Documentation_ Floor_Pen_No__2
  6
Continuous
100
AcDbLine
 10
1655.414679149353
 20
-407.1255854503156
 30
0.0
 11
1655.414679149353
 21
-517.1255854503158
 31
0.0
  0
LINE
  5
53F
330
53C
100
AcDbEntity
  8
Documentation_ Floor_Pen_No__2
  6
Continuous
100
AcDbLine
 10
1655.414679149353
 20
-407.1255854503156
 30
0.0
 11
1658.414679149353
 21
-410.1255854503156
 31
0.0
  0
LINE
  5
540
330
53C
100
AcDbEntity
  8
Documentation_ Floor_Pen_No__2
  6
Continuous
100
AcDbLine
 10
1655.414679149353
 20
-407.1255854503156
 30
0.0
 11
1652.414679149353
 21
-410.1255854503156
 31
0.0
  0
LINE
  5
541
330
53C
100
AcDbEntity
  8
Documentation_ Floor_Pen_No__2
  6
Continuous
100
AcDbLine
 10
1655.414679149353
 20
-517.1255854503158
 30
0.0
 11
1652.414679149353
 21
-514.1255854503158
 31
0.0
  0
LINE
  5
542
330
53C
100
AcDbEntity
  8
Documentation_ Floor_Pen_No__2
  6
Continuous
100
AcDbLine
 10
1655.414679149353
 20
-517.1255854503158
 30
0.0
 11
1658.414679149353
 21
-514.1255854503158
 31
0.0
  0
ENDBLK
  5
543
330
53C
100
AcDbEntity
  8
0
100
AcDbBlockEnd
  0
BLOCK
  5
545
330
544
100
AcDbEntity
  8
0
100
AcDbBlockBegin
  2
PolyLine_10
 70
     0
 10
1487.785126304173
 20
-375.3162394533594
 30
0.0
  3
PolyLine_10
  1

  0
CIRCLE
  5
546
330
544
100
AcDbEntity
  8
Documentation_ Floor_Pen_No__1
  6
Continuous
100
AcDbCircle
 10
1506.673387530119
 20
-375.3162394533594
 30
0.0
 40
0.5
  0
HATCH
  5
547
330
544
100
AcDbEntity
  8
Documentation_ Floor
  6
Continuous
 62
    18
420
        0
370
     0
100
AcDbHatch
 10
0.0
 20
0.0
 30
0.0
210
0.0
220
0.0
230
1.0
  2
SOLID
 70
     1
 71
     0
 91
        1
 92
        3
 72
     0
 73
     1
 93
       16
 10
1507.173387530119
 20
-375.3162394533594
 10
1507.135327296375
 20
-375.1248977371768
 10
1507.026940920712
 20
-374.9626860627661
 10
1506.864729246301
 20
-374.8542996871038
 10
1506.673387530119
 20
-374.8162394533594
 10
1506.482045813936
 20
-374.8542996871038
 10
1506.319834139526
 20
-374.9626860627661
 10
1506.211447763863
 20
-375.1248977371768
 10
1506.173387530119
 20
-375.3162394533594
 10
1506.211447763863
 20
-375.507581169542
 10
1506.319834139526
 20
-375.6697928439527
 10
1506.482045813936
 20
-375.778179219615
 10
1506.673387530119
 20
-375.8162394533594
 10
1506.864729246301
 20
-375.778179219615
 10
1507.026940920712
 20
-375.6697928439527
 10
1507.135327296375
 20
-375.507581169542
 97
        0
 75
     0
 76
     1
 98
        0
450
        0
451
        0
460
0.0
461
0.0
452
        1
462
0.0
453
        0
470

  0
LWPOLYLINE
  5
548
330
544
100
AcDbEntity
  8
Documentation_ Floor_Pen_No__1
  6
Continuous
100
AcDbPolyline
 90
        2
 70
   128
 43
0.0
 10
1487.785126304173
 20
-375.3162394533594
 10
1506.173387530119
 20
-375.3162394533594
  0
ENDBLK
  5
549
330
544
100
AcDbEntity
  8
0
100
AcDbBlockEnd
  0
BLOCK
  5
54B
330
54A
100
AcDbEntity
  8
0
100
AcDbBlockBegin
  2
PolyLine_11
 70
     0
 10
1851.113199338186
 20
-312.944815239628
 30
0.0
  3
PolyLine_11
  1

  0
CIRCLE
  5
54C
330
54A
100
AcDbEntity
  8
Documentation_ Floor_Pen_No__1
  6
Continuous
100
AcDbCircle
 10
1882.143914209384
 20
-312.944815239628
 30
0.0
 40
0.5
  0
HATCH
  5
54D
330
54A
100
AcDbEntity
  8
Documentation_ Floor
  6
Continuous
 62
    18
420
        0
370
     0
100
AcDbHatch
 10
0.0
 20
0.0
 30
0.0
210
0.0
220
0.0
230
1.0
  2
SOLID
 70
     1
 71
     0
 91
        1
 92
        3
 72
     0
 73
     1
 93
       16
 10
1882.643914209385
 20
-312.944815239628
 10
1882.60585397564
 20
-312.7534735234454
 10
1882.497467599978
 20
-312.5912618490347
 10
1882.335255925567
 20
-312.4828754733723
 10
1882.143914209384
 20
-312.444815239628
 10
1881.952572493202
 20
-312.4828754733723
 10
1881.790360818791
 20
-312.5912618490347
 10
1881.681974443129
 20
-312.7534735234454
 10
1881.643914209385
 20
-312.944815239628
 10
1881.681974443129
 20
-313.1361569558105
 10
1881.790360818791
 20
-313.2983686302213
 10
1881.952572493202
 20
-313.4067550058836
 10
1882.143914209384
 20
-313.444815239628
 10
1882.335255925567
 20
-313.4067550058836
 10
1882.497467599978
 20
-313.2983686302213
 10
1882.60585397564
 20
-313.1361569558105
 97
        0
 75
     0
 76
     1
 98
        0
450
        0
451
        0
460
0.0
461
0.0
452
        1
462
0.0
453
        0
470

  0
LWPOLYLINE
  5
54E
330
54A
100
AcDbEntity
  8
Documentation_ Floor_Pen_No__1
  6
Continuous
100
AcDbPolyline
 90
        2
 70
   128
 43
0.0
 10
1851.113199338186
 20
-312.944815239628
 10
1881.643914209385
 20
-312.944815239628
  0
ENDBLK
  5
54F
330
54A
100
AcDbEntity
  8
0
100
AcDbBlockEnd
  0
BLOCK
  5
551
330
550
100
AcDbEntity
  8
0
100
AcDbBlockBegin
  2
PolyLine_12
 70
     0
 10
1866.797201963303
 20
-329.3033986228138
 30
0.0
  3
PolyLine_12
  1

  0
CIRCLE
  5
552
330
550
100
AcDbEntity
  8
Documentation_ Floor_Pen_No__1
  6
Continuous
100
AcDbCircle
 10
1910.307660858787
 20
-329.3033986228138
 30
0.0
 40
0.5
  0
HATCH
  5
553
330
550
100
AcDbEntity
  8
Documentation_ Floor
  6
Continuous
 62
    18
420
        0
370
     0
100
AcDbHatch
 10
0.0
 20
0.0
 30
0.0
210
0.0
220
0.0
230
1.0
  2
SOLID
 70
     1
 71
     0
 91
        1
 92
        3
 72
     0
 73
     1
 93
       16
 10
1910.807660858787
 20
-329.3033986228138
 10
1910.769600625043
 20
-329.1120569066312
 10
1910.661214249381
 20
-328.9498452322205
 10
1910.49900257497
 20
-328.8414588565581
 10
1910.307660858787
 20
-328.8033986228137
 10
1910.116319142605
 20
-328.8414588565581
 10
1909.954107468194
 20
-328.9498452322205
 10
1909.845721092532
 20
-329.1120569066312
 10
1909.807660858788
 20
-329.3033986228138
 10
1909.845721092532
 20
-329.4947403389963
 10
1909.954107468194
 20
-329.6569520134071
 10
1910.116319142605
 20
-329.7653383890694
 10
1910.307660858787
 20
-329.8033986228138
 10
1910.49900257497
 20
-329.7653383890694
 10
1910.661214249381
 20
-329.6569520134071
 10
1910.769600625043
 20
-329.4947403389963
 97
        0
 75
     0
 76
     1
 98
        0
450
        0
451
        0
460
0.0
461
0.0
452
        1
462
0.0
453
        0
470

  0
LWPOLYLINE
  5
554
330
550
100
AcDbEntity
  8
Documentation_ Floor_Pen_No__1
  6
Continuous
100
AcDbPolyline
 90
        2
 70
   128
 43
0.0
 10
1866.797201963303
 20
-329.3033986228138
 10
1909.807660858788
 20
-329.3033986228138
  0
ENDBLK
  5
555
330
550
100
AcDbEntity
  8
0
100
AcDbBlockEnd
  0
ENDSEC
  0
SECTION
  2
ENTITIES
  0
HATCH
  5
3F
330
1F
100
AcDbEntity
  8
0_Pen_No__153
  6
Continuous
100
AcDbHatch
 10
0.0
 20
0.0
 30
0.0
210
0.0
220
0.0
230
1.0
  2
LINES___VERTICAL
 70
     0
 71
     0
 91
        1
 92
        3
 72
     0
 73
     1
 93
        4
 10
296.1370330515629
 20
567.8744145496916
 10
386.1370330515947
 20
567.8744145496916
 10
386.1370330515947
 20
267.8744145496916
 10
296.1370330515629
 20
267.8744145496916
 97
        0
 75
     0
 76
     2
 52
0.0
 41
1.0
 77
     0
 78
     1
 53
90.00000000000003
 43
0.0
 44
0.0
 45
-10.0
 46
0.0
 79
     0
 98
        0
  0
HATCH
  5
41
330
1F
100
AcDbEntity
  8
Fills_ Pattern_Pen_No__154
  6
Continuous
100
AcDbHatch
 10
0.0
 20
0.0
 30
0.0
210
0.0
220
0.0
230
1.0
  2
CUT_STONE
 70
     0
 71
     0
 91
        1
 92
        3
 72
     0
 73
     1
 93
        4
 10
284.3558871811238
 20
567.8744145496916
 10
294.3558871811147
 20
567.8744145496916
 10
294.3558871811147
 20
267.8744145496916
 10
284.3558871811238
 20
267.8744145496916
 97
        0
 75
     0
 76
     2
 52
0.0
 41
1.0
 77
     0
 78
     2
 53
44.99999999999999
 43
0.0
 44
7.0
 45
-2.227386360737624
 46
2.227386360737624
 79
     4
 49
0.0
 49
-2.099999999999999
 49
0.0
 49
-3.15
 53
110.0
 43
7.0
 44
7.0
 45
2.96003175547561
 46
1.077363451475857
 79
     4
 49
0.0
 49
-1.539999999999999
 49
0.0
 49
-2.659999999999999
 98
        0
  0
HATCH
  5
43
330
1F
100
AcDbEntity
  8
Fills_ Pattern_Pen_No__153
  6
Continuous
100
AcDbHatch
 10
0.0
 20
0.0
 30
0.0
210
0.0
220
0.0
230
1.0
  2
SOLID
 70
     1
 71
     0
 91
        1
 92
        3
 72
     1
 73
     1
 93
       20
 10
430.1370330517091
 20
543.3744145496834
 42
-0.1890084839753847
 10
420.1404814915953
 20
567.8744145496916
 42
0.0
 10
410.1370330517095
 20
567.8744145496916
 42
0.0
 10
410.1370330517095
 20
543.3744145496923
 42
0.0
 10
413.1370330517096
 20
541.3744145496917
 42
0.0
 10
413.1370330517096
 20
537.3744145496939
 42
0.0
 10
410.1370330517095
 20
535.3744145496932
 42
0.0
 10
410.1370330517095
 20
510.3744145496911
 42
0.0
 10
413.1370330517096
 20
508.3744145496904
 42
0.0
 10
413.1370330517096
 20
504.3744145496926
 42
0.0
 10
410.1370330517095
 20
502.374414549692
 42
0.0
 10
410.1370330517095
 20
487.8744145496902
 42
0.0
 10
420.1370330517093
 20
485.3744145496907
 42
0.0
 10
420.1370330517093
 20
474.3744145496915
 42
0.0
 10
423.1370330517094
 20
474.3744145496915
 42
0.0
 10
423.1370330517094
 20
468.3744145496913
 42
0.0
 10
420.1370330517093
 20
468.3744145496913
 42
0.0
 10
420.1370330517093
 20
458.3744145496897
 42
0.0
 10
428.1370330517058
 20
458.3744145496879
 42
0.0
 10
430.1370330517091
 20
460.3744145496921
 42
0.0
 97
        0
 75
     0
 76
     1
 98
        0
450
        0
451
        0
460
0.0
461
0.0
452
        1
462
0.0
453
        0
470

  0
HATCH
  5
45
330
1F
100
AcDbEntity
  8
Fills_ Pattern_Pen_No__153
  6
Continuous
100
AcDbHatch
 10
0.0
 20
0.0
 30
0.0
210
0.0
220
0.0
230
1.0
  2
SOLID
 70
     1
 71
     1
 91
        1
 92
        3
 72
     1
 73
     1
 93
       25
 10
430.1370330517091
 20
433.3744145496841
 42
-0.192582403567185
 10
420.1370330517093
 20
458.3744145496916
 42
0.0
 10
420.1370330517093
 20
468.3744145496913
 42
0.0
 10
417.1370330517092
 20
468.3744145496913
 42
0.0
 10
417.1370330517092
 20
474.3744145496915
 42
0.0
 10
420.1370330517093
 20
474.3744145496915
 42
0.0
 10
420.1370330517093
 20
483.3744145496901
 42
0.0
 10
410.1370330517095
 20
483.3744145496901
 42
0.0
 10
410.1370330517095
 20
433.374414549693
 42
0.0
 10
413.1370330517096
 20
431.3744145496924
 42
0.0
 10
413.1370330517096
 20
427.3744145496946
 42
0.0
 10
410.1370330517095
 20
425.3744145496939
 42
0.0
 10
410.1370330517095
 20
400.3744145496917
 42
0.0
 10
413.1370330517096
 20
398.3744145496912
 42
0.0
 10
413.1370330517096
 20
394.3744145496934
 42
0.0
 10
410.1370330517095
 20
392.3744145496927
 42
0.0
 10
410.1370330517095
 20
377.8744145496909
 42
0.0
 10
420.1370330517093
 20
375.3744145496914
 42
0.0
 10
420.1370330517093
 20
364.3744145496922
 42
0.0
 10
423.1370330517094
 20
364.3744145496922
 42
0.0
 10
423.1370330517094
 20
358.374414549692
 42
0.0
 10
420.1370330517093
 20
358.374414549692
 42
0.0
 10
420.1370330517093
 20
348.3744145496904
 42
0.0
 10
428.1370330517058
 20
348.3744145496887
 42
0.0
 10
430.1370330517091
 20
350.3744145496928
 42
0.0
 97
        1
330
47
 75
     0
 76
     1
 98
        0
450
        0
451
        0
460
0.0
461
0.0
452
        1
462
0.0
453
        0
470

  0
LWPOLYLINE
  5
47
102
{ACAD_REACTORS
330
45
102
}
330
1F
100
AcDbEntity
  8
Fills_ Pattern_Pen_No__4
  6
Continuous
100
AcDbPolyline
 90
       25
 70
   129
 43
0.0
 10
430.1370330517091
 20
433.3744145496841
 42
-0.192582403567185
 10
420.1370330517093
 20
458.3744145496916
 10
420.1370330517093
 20
468.3744145496913
 10
417.1370330517092
 20
468.3744145496913
 10
417.1370330517092
 20
474.3744145496915
 10
420.1370330517093
 20
474.3744145496915
 10
420.1370330517093
 20
483.3744145496901
 10
410.1370330517095
 20
483.3744145496901
 10
410.1370330517095
 20
433.374414549693
 10
413.1370330517096
 20
431.3744145496924
 10
413.1370330517096
 20
427.3744145496946
 10
410.1370330517095
 20
425.3744145496939
 10
410.1370330517095
 20
400.3744145496917
 10
413.1370330517096
 20
398.3744145496912
 10
413.1370330517096
 20
394.3744145496934
 10
410.1370330517095
 20
392.3744145496927
 10
410.1370330517095
 20
377.8744145496909
 10
420.1370330517093
 20
375.3744145496914
 10
420.1370330517093
 20
364.3744145496922
 10
423.1370330517094
 20
364.3744145496922
 10
423.1370330517094
 20
358.374414549692
 10
420.1370330517093
 20
358.374414549692
 10
420.1370330517093
 20
348.3744145496904
 10
428.1370330517058
 20
348.3744145496887
 10
430.1370330517091
 20
350.3744145496928
  0
HATCH
  5
48
330
1F
100
AcDbEntity
  8
Fills_ Pattern_Pen_No__153
  6
Continuous
100
AcDbHatch
 10
0.0
 20
0.0
 30
0.0
210
0.0
220
0.0
230
1.0
  2
SOLID
 70
     1
 71
     0
 91
        1
 92
        3
 72
     1
 73
     1
 93
       18
 10
430.1370330517091
 20
323.3744145496848
 42
-0.1925824035671927
 10
420.1370330517093
 20
348.3744145496923
 42
0.0
 10
420.1370330517093
 20
358.374414549692
 42
0.0
 10
417.1370330517092
 20
358.374414549692
 42
0.0
 10
417.1370330517092
 20
364.3744145496922
 42
0.0
 10
420.1370330517093
 20
364.3744145496922
 42
0.0
 10
420.1370330517093
 20
373.3744145496908
 42
0.0
 10
410.1370330517095
 20
373.3744145496908
 42
0.0
 10
410.1370330517095
 20
323.3744145496937
 42
0.0
 10
413.1370330517096
 20
321.3744145496931
 42
0.0
 10
413.1370330517096
 20
317.3744145496953
 42
0.0
 10
410.1370330517095
 20
315.3744145496946
 42
0.0
 10
410.1370330517095
 20
290.3744145496925
 42
0.0
 10
413.1370330517096
 20
288.3744145496919
 42
0.0
 10
413.1370330517096
 20
284.3744145496941
 42
0.0
 10
410.1370330517095
 20
282.3744145496934
 42
0.0
 10
410.1370330517095
 20
267.8744145496916
 42
0.0
 10
430.1370330517091
 20
267.8744145496916
 42
0.0
 97
        0
 75
     0
 76
     1
 98
        0
450
        0
451
        0
460
0.0
461
0.0
452
        1
462
0.0
453
        0
470

  0
LINE
  5
49
330
1F
100
AcDbEntity
  8
0_Pen_No__2
  6
Continuous
100
AcDbLine
 10
386.1370330515947
 20
267.8744145496916
 30
0.0
 11
386.1370330515947
 21
567.8744145496916
 31
0.0
  0
LINE
  5
4B
330
1F
100
AcDbEntity
  8
Documentation_ Floor_Pen_No__2
  6
Continuous
100
AcDbLine
 10
294.3558871811147
 20
567.8744145496916
 30
0.0
 11
294.3558871811147
 21
267.8744145496916
 31
0.0
  0
LINE
  5
4D
330
1F
100
AcDbEntity
  8
Documentation_ Floor_Pen_No__2
  6
Continuous
100
AcDbLine
 10
284.3558871811238
 20
567.8744145496916
 30
0.0
 11
284.3558871811238
 21
267.8744145496916
 31
0.0
  0
LINE
  5
4F
330
1F
100
AcDbEntity
  8
0_Pen_No__1
  6
Building Wrap
100
AcDbLine
 10
388.1370330515901
 20
567.8744145496916
 30
0.0
 11
388.1370330515901
 21
267.8744145496916
 31
0.0
  0
LINE
  5
51
330
1F
100
AcDbEntity
  8
0_Pen_No__2
  6
Continuous
100
AcDbLine
 10
296.1370330515629
 20
267.8744145496916
 30
0.0
 11
296.1370330515629
 21
567.8744145496916
 31
0.0
  0
LINE
  5
52
330
1F
100
AcDbEntity
  8
0_Pen_No__2
  6
Continuous
100
AcDbLine
 10
390.137033051704
 20
267.8744145496916
 30
0.0
 11
390.137033051704
 21
567.8744145496916
 31
0.0
  0
LINE
  5
53
330
1F
100
AcDbEntity
  8
0_Pen_No__2
  6
Continuous
100
AcDbLine
 10
409.1370330517095
 20
267.8744145496916
 30
0.0
 11
409.1370330517095
 21
567.8744145496916
 31
0.0
  0
LINE
  5
54
330
1F
100
AcDbEntity
  8
Documentation_ Floor_Pen_No__4
  6
Continuous
100
AcDbLine
 10
410.1370330517095
 20
567.8744145496916
 30
0.0
 11
410.1370330517095
 21
543.3744145496923
 31
0.0
  0
LINE
  5
56
330
1F
100
AcDbEntity
  8
Documentation_ Floor_Pen_No__4
  6
Continuous
100
AcDbLine
 10
410.1370330517095
 20
543.3744145496923
 30
0.0
 11
413.1370330517096
 21
541.3744145496917
 31
0.0
  0
LINE
  5
57
330
1F
100
AcDbEntity
  8
Documentation_ Floor_Pen_No__4
  6
Continuous
100
AcDbLine
 10
413.1370330517096
 20
541.3744145496917
 30
0.0
 11
413.1370330517096
 21
537.3744145496939
 31
0.0
  0
LINE
  5
58
330
1F
100
AcDbEntity
  8
Documentation_ Floor_Pen_No__4
  6
Continuous
100
AcDbLine
 10
413.1370330517096
 20
537.3744145496939
 30
0.0
 11
410.1370330517095
 21
535.3744145496932
 31
0.0
  0
LINE
  5
59
330
1F
100
AcDbEntity
  8
Documentation_ Floor_Pen_No__4
  6
Continuous
100
AcDbLine
 10
410.1370330517095
 20
535.3744145496932
 30
0.0
 11
410.1370330517095
 21
510.3744145496911
 31
0.0
  0
LINE
  5
5A
330
1F
100
AcDbEntity
  8
Documentation_ Floor_Pen_No__4
  6
Continuous
100
AcDbLine
 10
410.1370330517095
 20
510.3744145496911
 30
0.0
 11
413.1370330517096
 21
508.3744145496904
 31
0.0
  0
LINE
  5
5B
330
1F
100
AcDbEntity
  8
Documentation_ Floor_Pen_No__4
  6
Continuous
100
AcDbLine
 10
413.1370330517096
 20
508.3744145496904
 30
0.0
 11
413.1370330517096
 21
504.3744145496926
 31
0.0
  0
LINE
  5
5C
330
1F
100
AcDbEntity
  8
Documentation_ Floor_Pen_No__4
  6
Continuous
100
AcDbLine
 10
413.1370330517096
 20
504.3744145496926
 30
0.0
 11
410.1370330517095
 21
502.374414549692
 31
0.0
  0
LINE
  5
5D
330
1F
100
AcDbEntity
  8
Documentation_ Floor_Pen_No__4
  6
Continuous
100
AcDbLine
 10
410.1370330517095
 20
502.374414549692
 30
0.0
 11
410.1370330517095
 21
487.8744145496902
 31
0.0
  0
LINE
  5
5E
330
1F
100
AcDbEntity
  8
Documentation_ Floor_Pen_No__4
  6
Continuous
100
AcDbLine
 10
410.1370330517095
 20
487.8744145496902
 30
0.0
 11
420.1370330517093
 21
485.3744145496907
 31
0.0
  0
LINE
  5
5F
330
1F
100
AcDbEntity
  8
Documentation_ Floor_Pen_No__4
  6
Continuous
100
AcDbLine
 10
420.1370330517093
 20
485.3744145496907
 30
0.0
 11
420.1370330517093
 21
474.3744145496915
 31
0.0
  0
LINE
  5
60
330
1F
100
AcDbEntity
  8
Documentation_ Floor_Pen_No__4
  6
Continuous
100
AcDbLine
 10
420.1370330517093
 20
474.3744145496915
 30
0.0
 11
423.1370330517094
 21
474.3744145496915
 31
0.0
  0
LINE
  5
61
330
1F
100
AcDbEntity
  8
Documentation_ Floor_Pen_No__4
  6
Continuous
100
AcDbLine
 10
423.1370330517094
 20
474.3744145496915
 30
0.0
 11
423.1370330517094
 21
468.3744145496913
 31
0.0
  0
LINE
  5
62
330
1F
100
AcDbEntity
  8
Documentation_ Floor_Pen_No__4
  6
Continuous
100
AcDbLine
 10
423.1370330517094
 20
468.3744145496913
 30
0.0
 11
420.1370330517093
 21
468.3744145496913
 31
0.0
  0
LINE
  5
63
330
1F
100
AcDbEntity
  8
Documentation_ Floor_Pen_No__4
  6
Continuous
100
AcDbLine
 10
420.1370330517093
 20
468.3744145496913
 30
0.0
 11
420.1370330517093
 21
458.3744145496897
 31
0.0
  0
LINE
  5
64
330
1F
100
AcDbEntity
  8
Documentation_ Floor_Pen_No__4
  6
Continuous
100
AcDbLine
 10
420.1370330517093
 20
458.3744145496897
 30
0.0
 11
428.1370330517058
 21
458.3744145496879
 31
0.0
  0
LINE
  5
65
330
1F
100
AcDbEntity
  8
Documentation_ Floor_Pen_No__4
  6
Continuous
100
AcDbLine
 10
428.1370330517058
 20
458.3744145496879
 30
0.0
 11
430.1370330517091
 21
460.3744145496921
 31
0.0
  0
LINE
  5
66
330
1F
100
AcDbEntity
  8
Documentation_ Floor_Pen_No__4
  6
Continuous
100
AcDbLine
 10
430.1370330517091
 20
460.3744145496921
 30
0.0
 11
430.1370330517091
 21
543.3744145496834
 31
0.0
  0
LINE
  5
67
330
1F
100
AcDbEntity
  8
Documentation_ Floor_Pen_No__4
  6
Continuous
100
AcDbLine
 10
420.1370330517093
 20
348.3744145496923
 30
0.0
 11
420.1370330517093
 21
358.374414549692
 31
0.0
  0
LINE
  5
68
330
1F
100
AcDbEntity
  8
Documentation_ Floor_Pen_No__4
  6
Continuous
100
AcDbLine
 10
420.1370330517093
 20
358.374414549692
 30
0.0
 11
417.1370330517092
 21
358.374414549692
 31
0.0
  0
LINE
  5
69
330
1F
100
AcDbEntity
  8
Documentation_ Floor_Pen_No__4
  6
Continuous
100
AcDbLine
 10
417.1370330517092
 20
358.374414549692
 30
0.0
 11
417.1370330517092
 21
364.3744145496922
 31
0.0
  0
LINE
  5
6A
330
1F
100
AcDbEntity
  8
Documentation_ Floor_Pen_No__4
  6
Continuous
100
AcDbLine
 10
417.1370330517092
 20
364.3744145496922
 30
0.0
 11
420.1370330517093
 21
364.3744145496922
 31
0.0
  0
LINE
  5
6B
330
1F
100
AcDbEntity
  8
Documentation_ Floor_Pen_No__4
  6
Continuous
100
AcDbLine
 10
420.1370330517093
 20
364.3744145496922
 30
0.0
 11
420.1370330517093
 21
373.3744145496908
 31
0.0
  0
LINE
  5
6C
330
1F
100
AcDbEntity
  8
Documentation_ Floor_Pen_No__4
  6
Continuous
100
AcDbLine
 10
420.1370330517093
 20
373.3744145496908
 30
0.0
 11
410.1370330517095
 21
373.3744145496908
 31
0.0
  0
LINE
  5
6D
330
1F
100
AcDbEntity
  8
Documentation_ Floor_Pen_No__4
  6
Continuous
100
AcDbLine
 10
410.1370330517095
 20
373.3744145496908
 30
0.0
 11
410.1370330517095
 21
323.3744145496937
 31
0.0
  0
LINE
  5
6E
330
1F
100
AcDbEntity
  8
Documentation_ Floor_Pen_No__4
  6
Continuous
100
AcDbLine
 10
410.1370330517095
 20
323.3744145496937
 30
0.0
 11
413.1370330517096
 21
321.3744145496931
 31
0.0
  0
LINE
  5
6F
330
1F
100
AcDbEntity
  8
Documentation_ Floor_Pen_No__4
  6
Continuous
100
AcDbLine
 10
413.1370330517096
 20
321.3744145496931
 30
0.0
 11
413.1370330517096
 21
317.3744145496953
 31
0.0
  0
LINE
  5
70
330
1F
100
AcDbEntity
  8
Documentation_ Floor_Pen_No__4
  6
Continuous
100
AcDbLine
 10
413.1370330517096
 20
317.3744145496953
 30
0.0
 11
410.1370330517095
 21
315.3744145496946
 31
0.0
  0
LINE
  5
71
330
1F
100
AcDbEntity
  8
Documentation_ Floor_Pen_No__4
  6
Continuous
100
AcDbLine
 10
410.1370330517095
 20
315.3744145496946
 30
0.0
 11
410.1370330517095
 21
290.3744145496925
 31
0.0
  0
LINE
  5
72
330
1F
100
AcDbEntity
  8
Documentation_ Floor_Pen_No__4
  6
Continuous
100
AcDbLine
 10
410.1370330517095
 20
290.3744145496925
 30
0.0
 11
413.1370330517096
 21
288.3744145496919
 31
0.0
  0
LINE
  5
73
330
1F
100
AcDbEntity
  8
Documentation_ Floor_Pen_No__4
  6
Continuous
100
AcDbLine
 10
413.1370330517096
 20
288.3744145496919
 30
0.0
 11
413.1370330517096
 21
284.3744145496941
 31
0.0
  0
LINE
  5
74
330
1F
100
AcDbEntity
  8
Documentation_ Floor_Pen_No__4
  6
Continuous
100
AcDbLine
 10
413.1370330517096
 20
284.3744145496941
 30
0.0
 11
410.1370330517095
 21
282.3744145496934
 31
0.0
  0
LINE
  5
75
330
1F
100
AcDbEntity
  8
Documentation_ Floor_Pen_No__4
  6
Continuous
100
AcDbLine
 10
410.1370330517095
 20
282.3744145496934
 30
0.0
 11
410.1370330517095
 21
267.8744145496916
 31
0.0
  0
LINE
  5
76
330
1F
100
AcDbEntity
  8
Documentation_ Floor_Pen_No__4
  6
Continuous
100
AcDbLine
 10
430.1370330517091
 20
267.8744145496916
 30
0.0
 11
430.1370330517091
 21
323.3744145496848
 31
0.0
  0
LINE
  5
77
330
1F
100
AcDbEntity
  8
False Bits_ Plan_Pen_No__1
  6
Continuous
100
AcDbLine
 10
367.6225259605708
 20
437.7443522864143
 30
0.0
 11
367.622525960572
 21
440.2143522864164
 31
0.0
  0
LINE
  5
79
330
1F
100
AcDbEntity
  8
False Bits_ Plan_Pen_No__1
  6
Continuous
100
AcDbLine
 10
366.1225259605697
 20
437.7443522864125
 30
0.0
 11
366.122525960571
 21
440.2143522864164
 31
0.0
  0
LINE
  5
7A
330
1F
100
AcDbEntity
  8
False Bits_ Plan_Pen_No__1
  6
Continuous
100
AcDbLine
 10
373.6225259605715
 20
437.7443522864121
 30
0.0
 11
373.622525960571
 21
440.2143522864156
 31
0.0
  0
LINE
  5
7B
330
1F
100
AcDbEntity
  8
False Bits_ Plan_Pen_No__1
  6
Continuous
100
AcDbLine
 10
372.1225259605704
 20
437.7443522864139
 30
0.0
 11
372.1225259605698
 21
440.2143522864174
 31
0.0
  0
LINE
  5
7C
330
1F
100
AcDbEntity
  8
False Bits_ Plan_Pen_No__1
  6
Continuous
100
AcDbLine
 10
369.1225259605719
 20
437.7443522864125
 30
0.0
 11
369.1225259605714
 21
440.2143522864159
 31
0.0
  0
LINE
  5
7D
330
1F
100
AcDbEntity
  8
False Bits_ Plan_Pen_No__1
  6
Continuous
100
AcDbLine
 10
370.6225259605712
 20
437.7443522864123
 30
0.0
 11
370.6225259605706
 21
440.2143522864159
 31
0.0
  0
LINE
  5
7E
330
1F
100
AcDbEntity
  8
False Bits_ Plan_Pen_No__1
  6
Continuous
100
AcDbLine
 10
375.1225259605707
 20
437.7443522864137
 30
0.0
 11
375.1225259605719
 21
440.2143522864174
 31
0.0
  0
LINE
  5
7F
330
1F
100
AcDbEntity
  8
False Bits_ Plan_Pen_No__1
  6
Continuous
100
AcDbLine
 10
364.6225259605706
 20
437.7443522864125
 30
0.0
 11
364.6225259605716
 21
440.2143522864164
 31
0.0
  0
LINE
  5
80
330
1F
100
AcDbEntity
  8
False Bits_ Plan_Pen_No__2
  6
Continuous
100
AcDbLine
 10
407.6370330517106
 20
441.9793522864128
 30
0.0
 11
409.1370330517109
 21
441.9793522864128
 31
0.0
  0
LINE
  5
82
330
1F
100
AcDbEntity
  8
False Bits_ Plan_Pen_No__2
  6
Continuous
100
AcDbLine
 10
409.1370330517094
 20
435.9793522864132
 30
0.0
 11
407.6370330517092
 21
435.9793522864134
 31
0.0
  0
LINE
  5
83
330
1F
100
AcDbEntity
  8
False Bits_ Plan_Pen_No__2
  6
Continuous
100
AcDbLine
 10
407.6370330517092
 20
435.9793522864134
 30
0.0
 11
407.6370330517106
 21
441.9793522864128
 31
0.0
  0
LINE
  5
84
330
1F
100
AcDbEntity
  8
False Bits_ Plan_Pen_No__2
  6
Continuous
100
AcDbLine
 10
409.1370330517094
 20
435.9793522864132
 30
0.0
 11
409.1370330517109
 21
441.9793522864128
 31
0.0
  0
LINE
  5
85
330
1F
100
AcDbEntity
  8
False Bits_ Plan_Pen_No__2
  6
Continuous
100
AcDbLine
 10
359.1370330517085
 20
438.9793522864129
 30
0.0
 11
361.6225259605713
 21
437.5443522864122
 31
0.0
  0
LINE
  5
86
330
1F
100
AcDbEntity
  8
False Bits_ Plan_Pen_No__2
  6
Continuous
100
AcDbLine
 10
359.1370330517085
 20
438.9793522864129
 30
0.0
 11
361.622525960572
 21
440.4143522864156
 31
0.0
  0
LINE
  5
87
330
1F
100
AcDbEntity
  8
False Bits_ Plan_Pen_No__2
  6
Continuous
100
AcDbLine
 10
407.6370330517101
 20
440.4143522864159
 30
0.0
 11
361.6225259605702
 21
440.4143522864155
 31
0.0
  0
LINE
  5
88
330
1F
100
AcDbEntity
  8
False Bits_ Plan_Pen_No__1
  6
Continuous
100
AcDbLine
 10
361.6225259605701
 20
437.7443522864128
 30
0.0
 11
361.6225259605694
 21
440.2143522864164
 31
0.0
  0
LINE
  5
89
330
1F
100
AcDbEntity
  8
False Bits_ Plan_Pen_No__1
  6
Continuous
100
AcDbLine
 10
363.1225259605693
 20
437.7443522864125
 30
0.0
 11
363.1225259605706
 21
440.2143522864164
 31
0.0
  0
LINE
  5
8A
330
1F
100
AcDbEntity
  8
False Bits_ Plan_Pen_No__1
  6
Continuous
100
AcDbLine
 10
384.1225259605719
 20
437.7443522864132
 30
0.0
 11
384.1225259605712
 21
440.2143522864167
 31
0.0
  0
LINE
  5
8B
330
1F
100
AcDbEntity
  8
False Bits_ Plan_Pen_No__1
  6
Continuous
100
AcDbLine
 10
385.6225259605727
 20
437.744352286415
 30
0.0
 11
385.6225259605706
 21
440.2143522864167
 31
0.0
  0
LINE
  5
8C
330
1F
100
AcDbEntity
  8
False Bits_ Plan_Pen_No__1
  6
Continuous
100
AcDbLine
 10
376.6225259605698
 20
437.7443522864153
 30
0.0
 11
376.6225259605712
 21
440.2143522864172
 31
0.0
  0
LINE
  5
8D
330
1F
100
AcDbEntity
  8
False Bits_ Plan_Pen_No__1
  6
Continuous
100
AcDbLine
 10
378.1225259605709
 20
437.7443522864155
 30
0.0
 11
378.1225259605707
 21
440.2143522864155
 31
0.0
  0
LINE
  5
8E
330
1F
100
AcDbEntity
  8
False Bits_ Plan_Pen_No__1
  6
Continuous
100
AcDbLine
 10
379.6225259605721
 20
437.7443522864137
 30
0.0
 11
379.6225259605716
 21
440.2143522864172
 31
0.0
  0
LINE
  5
8F
330
1F
100
AcDbEntity
  8
False Bits_ Plan_Pen_No__1
  6
Continuous
100
AcDbLine
 10
382.6225259605706
 20
437.744352286415
 30
0.0
 11
382.6225259605701
 21
440.2143522864167
 31
0.0
  0
LINE
  5
90
330
1F
100
AcDbEntity
  8
False Bits_ Plan_Pen_No__1
  6
Continuous
100
AcDbLine
 10
390.1225259605724
 20
437.7443522864147
 30
0.0
 11
390.122525960572
 21
440.2143522864165
 31
0.0
  0
LINE
  5
91
330
1F
100
AcDbEntity
  8
False Bits_ Plan_Pen_No__1
  6
Continuous
100
AcDbLine
 10
388.6225259605712
 20
437.7443522864147
 30
0.0
 11
388.6225259605709
 21
440.2143522864165
 31
0.0
  0
LINE
  5
92
330
1F
100
AcDbEntity
  8
False Bits_ Plan_Pen_No__1
  6
Continuous
100
AcDbLine
 10
381.1225259605695
 20
437.744352286415
 30
0.0
 11
381.1225259605726
 21
440.2143522864172
 31
0.0
  0
LINE
  5
93
330
1F
100
AcDbEntity
  8
False Bits_ Plan_Pen_No__1
  6
Continuous
100
AcDbLine
 10
387.1225259605703
 20
437.7443522864147
 30
0.0
 11
387.1225259605698
 21
440.2143522864165
 31
0.0
  0
LINE
  5
94
330
1F
100
AcDbEntity
  8
False Bits_ Plan_Pen_No__2
  6
Continuous
100
AcDbLine
 10
407.6370330517095
 20
437.544352286414
 30
0.0
 11
361.6225259605676
 21
437.5443522864135
 31
0.0
  0
LINE
  5
95
330
1F
100
AcDbEntity
  8
False Bits_ Plan_Pen_No__1
  6
Continuous
100
AcDbLine
 10
391.6225259605699
 20
437.7443522864143
 30
0.0
 11
391.6225259605695
 21
440.2143522864164
 31
0.0
  0
LINE
  5
96
330
1F
100
AcDbEntity
  8
Documentation_ Floor_Pen_No__2
  6
Continuous
100
AcDbLine
 10
428.2209063425321
 20
495.5152510399121
 30
0.0
 11
430.1370330517092
 21
495.3476116749798
 31
0.0
  0
LINE
  5
97
330
1F
100
AcDbEntity
  8
Documentation_ Floor_Pen_No__2
  6
Continuous
100
AcDbLine
 10
427.97473417294
 20
491.1967344691764
 30
0.0
 11
430.1370330517092
 21
491.0075578301293
 31
0.0
  0
LINE
  5
98
330
1F
100
AcDbEntity
  8
Documentation_ Floor_Pen_No__2
  6
Continuous
100
AcDbLine
 10
428.2209063425321
 20
385.5610744665113
 30
0.0
 11
430.1370330517092
 21
385.393435101579
 31
0.0
  0
LINE
  5
99
330
1F
100
AcDbEntity
  8
Documentation_ Floor_Pen_No__2
  6
Continuous
100
AcDbLine
 10
427.97473417294
 20
381.2425578957757
 30
0.0
 11
430.1370330517092
 21
381.0533812567285
 31
0.0
  0
LINE
  5
9A
330
1F
100
AcDbEntity
  8
Documentation_ Floor_Pen_No__2
  6
Continuous
100
AcDbLine
 10
428.2209063425321
 20
275.561074466512
 30
0.0
 11
430.1370330517092
 21
275.3934351015797
 31
0.0
  0
LINE
  5
9B
330
1F
100
AcDbEntity
  8
Documentation_ Floor_Pen_No__2
  6
Continuous
100
AcDbLine
 10
427.97473417294
 20
271.2425578957764
 30
0.0
 11
430.1370330517092
 21
271.0533812567292
 31
0.0
  0
LINE
  5
9C
330
1F
100
AcDbEntity
  8
False Bits_ Plan_Pen_No__2
  6
Continuous
100
AcDbLine
 10
425.3351246937521
 20
495.7705588391454
 30
0.0
 11
428.3237190404543
 21
495.5092088231482
 31
0.0
  0
LINE
  5
9D
330
1F
100
AcDbEntity
  8
False Bits_ Plan_Pen_No__2
  6
Continuous
100
AcDbLine
 10
427.9508596842969
 20
491.2454808885225
 30
0.0
 11
424.9622653375947
 21
491.5068309045198
 31
0.0
  0
LINE
  5
9E
330
1F
100
AcDbEntity
  8
False Bits_ Plan_Pen_No__2
  6
Continuous
100
AcDbLine
 10
424.9622653375947
 20
491.5068309045198
 30
0.0
 11
425.3351246937521
 21
495.7705588391454
 31
0.0
  0
LINE
  5
9F
330
1F
100
AcDbEntity
  8
False Bits_ Plan_Pen_No__2
  6
Continuous
100
AcDbLine
 10
427.9508596842969
 20
491.2454808885225
 30
0.0
 11
428.3237190404543
 21
495.5092088231482
 31
0.0
  0
LINE
  5
A0
330
1F
100
AcDbEntity
  8
False Bits_ Plan_Pen_No__2
  6
Continuous
100
AcDbLine
 10
353.4224306948293
 20
499.9110952557664
 30
0.0
 11
355.7612652884958
 21
498.1255553532487
 31
0.0
  0
LINE
  5
A1
330
1F
100
AcDbEntity
  8
False Bits_ Plan_Pen_No__2
  6
Continuous
100
AcDbLine
 10
353.4224306948293
 20
499.9110952557664
 30
0.0
 11
356.0356828052936
 21
501.2635794172872
 31
0.0
  0
LINE
  5
A2
330
1F
100
AcDbEntity
  8
False Bits_ Plan_Pen_No__2
  6
Continuous
100
AcDbLine
 10
425.0114862572745
 20
492.0696828398158
 30
0.0
 11
355.7612652884921
 21
498.1255553532504
 31
0.0
  0
LINE
  5
A3
330
1F
100
AcDbEntity
  8
False Bits_ Plan_Pen_No__2
  6
Continuous
100
AcDbLine
 10
425.2859037740722
 20
495.2077069038528
 30
0.0
 11
356.0356828052919
 21
501.2635794172874
 31
0.0
  0
LINE
  5
A4
330
1F
100
AcDbEntity
  8
False Bits_ Plan_Pen_No__2
  6
Continuous
100
AcDbLine
 10
425.3351246937521
 20
385.8163822657446
 30
0.0
 11
428.3237190404543
 21
385.5550322497474
 31
0.0
  0
LINE
  5
A5
330
1F
100
AcDbEntity
  8
False Bits_ Plan_Pen_No__2
  6
Continuous
100
AcDbLine
 10
424.9622653375947
 20
381.552654331119
 30
0.0
 11
425.3351246937521
 21
385.8163822657446
 31
0.0
  0
LINE
  5
A6
330
1F
100
AcDbEntity
  8
False Bits_ Plan_Pen_No__2
  6
Continuous
100
AcDbLine
 10
427.9508596842969
 20
381.2913043151218
 30
0.0
 11
428.3237190404543
 21
385.5550322497474
 31
0.0
  0
LINE
  5
A7
330
1F
100
AcDbEntity
  8
False Bits_ Plan_Pen_No__2
  6
Continuous
100
AcDbLine
 10
425.2859037740722
 20
385.2535303304521
 30
0.0
 11
356.0356828052919
 21
391.3094028438867
 31
0.0
  0
LINE
  5
A8
330
1F
100
AcDbEntity
  8
False Bits_ Plan_Pen_No__2
  6
Continuous
100
AcDbLine
 10
353.4224306948293
 20
389.9569186823656
 30
0.0
 11
355.7612652884958
 21
388.1713787798479
 31
0.0
  0
LINE
  5
A9
330
1F
100
AcDbEntity
  8
False Bits_ Plan_Pen_No__2
  6
Continuous
100
AcDbLine
 10
425.0114862572745
 20
382.1155062664151
 30
0.0
 11
355.7612652884921
 21
388.1713787798497
 31
0.0
  0
LINE
  5
AA
330
1F
100
AcDbEntity
  8
False Bits_ Plan_Pen_No__2
  6
Continuous
100
AcDbLine
 10
353.4224306948293
 20
389.9569186823656
 30
0.0
 11
356.0356828052936
 21
391.3094028438865
 31
0.0
  0
LINE
  5
AB
330
1F
100
AcDbEntity
  8
False Bits_ Plan_Pen_No__2
  6
Continuous
100
AcDbLine
 10
427.9508596842969
 20
381.2913043151218
 30
0.0
 11
424.9622653375947
 21
381.552654331119
 31
0.0
  0
LINE
  5
AC
330
1F
100
AcDbEntity
  8
False Bits_ Plan_Pen_No__2
  6
Continuous
100
AcDbLine
 10
425.3351246937521
 20
275.7676358463992
 30
0.0
 11
428.3237190404543
 21
275.5062858304019
 31
0.0
  0
LINE
  5
AD
330
1F
100
AcDbEntity
  8
False Bits_ Plan_Pen_No__2
  6
Continuous
100
AcDbLine
 10
424.9622653375947
 20
271.5039079117736
 30
0.0
 11
425.3351246937521
 21
275.7676358463992
 31
0.0
  0
LINE
  5
AE
330
1F
100
AcDbEntity
  8
False Bits_ Plan_Pen_No__2
  6
Continuous
100
AcDbLine
 10
427.9508596842969
 20
271.2425578957764
 30
0.0
 11
428.3237190404543
 21
275.5062858304019
 31
0.0
  0
LINE
  5
AF
330
1F
100
AcDbEntity
  8
False Bits_ Plan_Pen_No__2
  6
Continuous
100
AcDbLine
 10
425.2859037740722
 20
275.2047839111066
 30
0.0
 11
356.0356828052919
 21
281.2606564245413
 31
0.0
  0
LINE
  5
B0
330
1F
100
AcDbEntity
  8
False Bits_ Plan_Pen_No__2
  6
Continuous
100
AcDbLine
 10
353.4224306948293
 20
279.9081722630202
 30
0.0
 11
355.7612652884958
 21
278.1226323605025
 31
0.0
  0
LINE
  5
B1
330
1F
100
AcDbEntity
  8
False Bits_ Plan_Pen_No__2
  6
Continuous
100
AcDbLine
 10
425.0114862572745
 20
272.0667598470697
 30
0.0
 11
355.7612652884921
 21
278.1226323605042
 31
0.0
  0
LINE
  5
B2
330
1F
100
AcDbEntity
  8
False Bits_ Plan_Pen_No__2
  6
Continuous
100
AcDbLine
 10
353.4224306948293
 20
279.9081722630202
 30
0.0
 11
356.0356828052936
 21
281.2606564245411
 31
0.0
  0
LINE
  5
B3
330
1F
100
AcDbEntity
  8
False Bits_ Plan_Pen_No__2
  6
Continuous
100
AcDbLine
 10
427.9508596842969
 20
271.2425578957764
 30
0.0
 11
424.9622653375947
 21
271.5039079117736
 31
0.0
  0
LINE
  5
B4
330
1F
100
AcDbEntity
  8
Documentation_ Floor_Pen_No__4
  6
Continuous
100
AcDbLine
 10
353.4224306948293
 20
389.9110952557646
 30
0.0
 11
353.5277468488658
 21
389.9110952557646
 31
0.0
  0
INSERT
  5
BD
330
1F
100
AcDbEntity
  8
Documentation_ Floor
  6
Continuous
100
AcDbBlockReference
  2
PolyLine_1
 10
280.5297834736263
 20
556.0433891065669
 30
0.0
  0
INSERT
  5
C4
330
1F
100
AcDbEntity
  8
Documentation_ Floor
  6
Continuous
100
AcDbBlockReference
  2
PolyLine_2
 10
462.1370330517095
 20
556.4195831402145
 30
0.0
  0
INSERT
  5
CB
330
1F
100
AcDbEntity
  8
Documentation_ Floor
  6
Continuous
100
AcDbBlockReference
  2
PolyLine_3
 10
462.1370330517095
 20
540.7110707475545
 30
0.0
  0
INSERT
  5
D2
330
1F
100
AcDbEntity
  8
Documentation_ Floor
  6
Continuous
100
AcDbBlockReference
  2
PolyLine_4
 10
462.1370330517095
 20
525.1113907171975
 30
0.0
  0
INSERT
  5
D9
330
1F
100
AcDbEntity
  8
Documentation_ Floor
  6
Continuous
100
AcDbBlockReference
  2
PolyLine_5
 10
462.1370330517095
 20
509.4283774771935
 30
0.0
  0
INSERT
  5
E0
330
1F
100
AcDbEntity
  8
Documentation_ Floor
  6
Continuous
100
AcDbBlockReference
  2
PolyLine_6
 10
462.1370330517095
 20
446.6339033110336
 30
0.0
  0
INSERT
  5
E7
330
1F
100
AcDbEntity
  8
Documentation_ Floor
  6
Continuous
100
AcDbBlockReference
  2
PolyLine_7
 10
462.1370330517095
 20
414.8354026465122
 30
0.0
  0
INSERT
  5
EE
330
1F
100
AcDbEntity
  8
Documentation_ Floor
  6
Continuous
100
AcDbBlockReference
  2
PolyLine_8
 10
462.922016903866
 20
477.7427090132191
 30
0.0
  0
INSERT
  5
F5
330
1F
100
AcDbEntity
  8
Documentation_ Floor
  6
Continuous
100
AcDbBlockReference
  2
PolyLine_9
 10
462.4547292796895
 20
368.2301326615423
 30
0.0
  0
ARC
  5
F6
330
1F
100
AcDbEntity
  8
Documentation_ Floor_Pen_No__4
  6
Continuous
100
AcDbCircle
 10
456.3870330517294
 20
568.3744145496912
 30
0.0
 40
36.25000000001993
100
AcDbArc
 50
180.7903116747501
 51
223.6028189726904
  0
ARC
  5
F7
330
1F
100
AcDbEntity
  8
Documentation_ Floor_Pen_No__4
  6
Continuous
100
AcDbCircle
 10
456.3870330517287
 20
348.3744145496924
 30
0.0
 40
36.25000000001945
100
AcDbArc
 50
180.0
 51
223.6028189726908
  0
DIMENSION
  5
104
330
1F
100
AcDbEntity
  8
Documentation_ Floor
  6
Continuous
100
AcDbDimension
280
     0
  2
*D9
 10
447.2527977530533
 20
373.3744145496908
 30
0.0
 11
443.7527977754051
 21
360.874414412602
 31
0.0
 70
   160
  1
<>
 71
     5
 42
-1.0
 73
     0
 74
     0
 75
     0
 53
90.0
  3
GENERATED_STYLE__1
100
AcDbAlignedDimension
 13
430.1370330517091
 23
348.3744145496887
 33
0.0
 14
420.1370330517093
 24
373.3744145496908
 34
0.0
 50
90.0
100
AcDbRotatedDimension
  0
DIMENSION
  5
115
330
1F
100
AcDbEntity
  8
Documentation_ Floor
  6
Continuous
100
AcDbDimension
280
     0
  2
*D11
 10
447.2527977530533
 20
383.3744145496887
 30
0.0
 11
443.7527977754051
 21
378.374414412602
 31
0.0
 70
   160
  1
<>
 71
     5
 42
-1.0
 73
     0
 74
     0
 75
     0
 53
90.0
  3
GENERATED_STYLE__1
100
AcDbAlignedDimension
 13
420.1370330517093
 23
373.3744145496908
 33
0.0
 14
430.1370330517091
 24
383.3744145496887
 34
0.0
 50
90.0
100
AcDbRotatedDimension
  0
DIMENSION
  5
121
330
1F
100
AcDbEntity
  8
Documentation_ Floor
  6
Continuous
100
AcDbDimension
280
     0
  2
*D12
 10
368.7009690295146
 20
383.3744145496887
 30
0.0
 11
365.2009690518663
 21
365.8744144126009
 31
0.0
 70
   160
  1
<>
 71
     5
 42
-1.0
 73
     0
 74
     0
 75
     0
 53
90.0
  3
GENERATED_STYLE__1
100
AcDbAlignedDimension
 13
430.1370330517091
 23
348.3744145496887
 33
0.0
 14
430.1370330517091
 24
383.3744145496887
 34
0.0
 50
90.0
100
AcDbRotatedDimension
  0
DIMENSION
  5
12D
330
1F
100
AcDbEntity
  8
Documentation_ Floor
  6
Continuous
100
AcDbDimension
280
     0
  2
*D13
 10
386.1370330515947
 20
404.537796373226
 30
0.0
 11
369.7797317361243
 21
408.0377963508743
 31
0.0
 70
   160
  1
35
 71
     5
 42
-1.0
 73
     0
 74
     0
 75
     0
  3
GENERATED_STYLE__2
100
AcDbAlignedDimension
 13
353.4224306948293
 23
389.9110952557646
 33
0.0
 14
386.1370330515947
 24
267.8744145496916
 34
0.0
100
AcDbRotatedDimension
  0
MTEXT
  5
12F
330
1F
100
AcDbEntity
  8
Documentation_ Floor_Pen_No__1
  6
Continuous
100
AcDbMText
 10
224.3558871811238
 20
558.8744099537783
 30
0.0
 40
4.999999999999999
 41
0.0
 46
0.0
 71
     1
 72
     1
  1
{Internal wall lining\P}
  7
GENERATED_STYLE_1
 73
     1
 44
1.0
  0
MTEXT
  5
130
330
1F
100
AcDbEntity
  8
Documentation_ Floor_Pen_No__1
  6
Continuous
100
AcDbMText
 10
464.1370330517093
 20
527.4458033558255
 30
0.0
 40
5.0
 41
0.0
 46
0.0
 71
     1
 72
     1
  1
{Cavity batten\P}
  7
GENERATED_STYLE_1
 73
     1
 44
1.0
  0
MTEXT
  5
131
330
1F
100
AcDbEntity
  8
Documentation_ Floor_Pen_No__1
  6
Continuous
100
AcDbMText
 10
464.1370330517093
 20
543.1601150476659
 30
0.0
 40
5.0
 41
0.0
 46
0.0
 71
     1
 72
     1
  1
{Building wrap\P}
  7
GENERATED_STYLE_1
 73
     1
 44
1.0
  0
MTEXT
  5
132
330
1F
100
AcDbEntity
  8
Documentation_ Floor_Pen_No__1
  6
Continuous
100
AcDbMText
 10
464.1370330517093
 20
558.8744099537783
 30
0.0
 40
5.0
 41
0.0
 46
0.0
 71
     1
 72
     1
  1
{Wall framing\P}
  7
GENERATED_STYLE_1
 73
     1
 44
1.0
  0
MTEXT
  5
133
330
1F
100
AcDbEntity
  8
Documentation_ Floor_Pen_No__1
  6
Continuous
100
AcDbMText
 10
464.1370330517093
 20
448.8742966137624
 30
0.0
 40
5.0
 41
0.0
 46
0.0
 71
     1
 72
     1
  1
{Packer battens temporarily fixed\Pto wall framing (Weatherboard fixing\Pused to permanently fix the batten)\P}
  7
GENERATED_STYLE_1
 73
     1
 44
1.0
  0
MTEXT
  5
134
330
1F
100
AcDbEntity
  8
Documentation_ Floor_Pen_No__1
  6
Continuous
100
AcDbMText
 10
464.1370330517093
 20
511.7314916639852
 30
0.0
 40
5.0
 41
0.0
 46
0.0
 71
     1
 72
     1
  1
Abodo rusticated weatherboard
  7
GENERATED_STYLE_1
 73
     1
 44
1.0
  0
MTEXT
  5
135
330
1F
100
AcDbEntity
  8
Documentation_ Floor_Pen_No__1
  6
Continuous
100
AcDbMText
 10
464.1370330517093
 20
417.445498145614
 30
0.0
 40
5.0
 41
0.0
 46
0.0
 71
     1
 72
     1
  1
{70x3.15mm jolt head nail\Ppunched & puttied to achieve\P35mm min. penetration\P}
  7
GENERATED_STYLE_1
 73
     1
 44
1.0
  0
MTEXT
  5
136
330
1F
100
AcDbEntity
  8
Documentation_ Floor_Pen_No__1
  6
Continuous
100
AcDbMText
 10
464.1370330517093
 20
480.3028775761369
 30
0.0
 40
5.0
 41
0.0
 46
0.0
 71
     1
 72
     1
  1
{2mm expansion gap\P}
  7
GENERATED_STYLE_1
 73
     1
 44
1.0
  0
MTEXT
  5
137
330
1F
100
AcDbEntity
  8
Documentation_ Floor_Pen_No__1
  6
Continuous
100
AcDbMText
 10
464.1370330517093
 20
370.3026063475665
 30
0.0
 40
5.0
 41
0.0
 46
0.0
 71
     1
 72
     1
  1
{Fixing to be\P10mm max. above top of lower board\P(35mm max from bottom of board)\P}
  7
GENERATED_STYLE_1
 73
     1
 44
1.0
  0
MTEXT
  5
138
330
1F
100
AcDbEntity
  8
Documentation_ Floor_Pen_No__1
  6
Continuous
100
AcDbMText
 10
464.1370330517093
 20
386.0169180394068
 30
0.0
 40
5.0
 41
0.0
 46
0.0
 71
     1
 72
     1
  1
{Nail on an upward angle\P}
  7
GENERATED_STYLE_1
 73
     1
 44
1.0
  0
VIEWPORT
  5
68C
102
{ACAD_XDICTIONARY
360
68D
102
}
330
68B
100
AcDbEntity
 67
     1
  8
0
100
AcDbViewport
 10
144.5334693535099
 20
97.38309767494868
 30
0.0
 40
601.8416862071735
 41
286.9992382624955
 68
     1
 69
     1
 12
144.5334693535099
 22
97.38309767494868
 13
0.0
 23
0.0
 14
10.0
 24
10.0
 15
10.0
 25
10.0
 16
0.0
 26
0.0
 36
1.0
 17
0.0
 27
0.0
 37
0.0
 42
50.0
 43
0.0
 44
0.0
 45
286.9992382624955
 50
0.0
 51
0.0
 72
  1000
 90
   819232
  1

281
     0
 71
     1
 74
     0
110
0.0
120
0.0
130
0.0
111
1.0
121
0.0
131
0.0
112
0.0
122
1.0
132
0.0
 79
     0
146
0.0
170
     0
 61
     5
348
2F
292
     1
282
     1
141
0.0
142
0.0
 63
   250
421
  3355443
  0
LINE
  5
68F
330
68B
100
AcDbEntity
 67
     1
  8
0
100
AcDbLine
 10
3.15713315299277
 20
2.209414789719573
 30
0.0
 11
200.3709444587095
 21
2.209414789719573
 31
0.0
  0
LINE
  5
690
330
68B
100
AcDbEntity
 67
     1
  8
0
100
AcDbLine
 10
200.3709444587095
 20
2.209414789719573
 30
0.0
 11
200.3709444587095
 21
287.7561714473947
 31
0.0
  0
LINE
  5
691
330
68B
100
AcDbEntity
 67
     1
  8
0
100
AcDbLine
 10
200.3709444587095
 20
287.7561714473947
 30
0.0
 11
3.15713315299277
 21
287.7561714473947
 31
0.0
  0
LINE
  5
692
330
68B
100
AcDbEntity
 67
     1
  8
0
100
AcDbLine
 10
3.15713315299277
 20
287.7561714473947
 30
0.0
 11
3.15713315299277
 21
2.209414789719573
 31
0.0
  0
LINE
  5
693
330
68B
100
AcDbEntity
 67
     1
  8
0
100
AcDbLine
 10
3.15713315299277
 20
29.56659624953767
 30
0.0
 11
200.3709444587095
 21
29.56659624953767
 31
0.0
  0
LINE
  5
694
330
68B
100
AcDbEntity
 67
     1
  8
0
100
AcDbLine
 10
200.3531650465694
 20
16.39078189578748
 30
0.0
 11
3.15713315299277
 21
16.39078189578748
 31
0.0
  0
LINE
  5
695
330
68B
100
AcDbEntity
 67
     1
  8
0
100
AcDbLine
 10
149.4136253158573
 20
29.47846116364366
 30
0.0
 11
149.4136253158573
 21
2.262499034537484
 31
0.0
  0
LINE
  5
696
330
68B
100
AcDbEntity
 67
     1
  8
0
100
AcDbLine
 10
176.2945725219253
 20
29.47846116364366
 30
0.0
 11
176.2945725219253
 21
16.39078189578748
 31
0.0
  0
MTEXT
  5
697
102
{ACAD_XDICTIONARY
360
698
102
}
330
68B
100
AcDbEntity
 67
     1
  8
0
100
AcDbMText
 10
3.15713315299277
 20
285.3102914378114
 30
0.0
 40
3.0
 41
47.04732135723043
 46
0.0
 71
     1
 72
     5
  3
\pi-4.5,l9;{\fCambria|b0|i0|c0|p18;\H0.66667x;1.^IWeatherboards must be coated with at least one coat all sides prior to fixing.    \P2.^IFixing points must be pre-drilled minimum 1mm smaller than the fastener.\P3.^ICut ends and exposed timber must be s
  1
ealed with an approved coating or end seal.}
 73
     1
 44
1.0
1001
ACAD
1000
ACAD_MTEXT_COLUMN_INFO_BEGIN
1070
    75
1070
     2
1070
    79
1070
     0
1070
    76
1070
     1
1070
    78
1070
     0
1070
    48
1040
47.04732135723043
1070
    49
1040
12.5
1070
    50
1070
     1
1040
0.0
1000
ACAD_MTEXT_COLUMN_INFO_END
  0
MTEXT
  5
699
102
{ACAD_XDICTIONARY
360
69A
102
}
330
68B
100
AcDbEntity
 67
     1
  8
0
100
AcDbMText
 10
42.55398918694436
 20
14.38432073487468
 30
0.0
 40
1.7
 41
75.82908797969011
 46
0.0
 71
     1
 72
     5
  1
{\fCambria|b0|i0|c0|p18;© 2013 Abodo Wood Ltd, PO Box 8961, Symonds St, Auckland 1052\PPh 64 9) 302 9555 Fx 64 9) 302 9550\H1.6364x; \H0.6111x;\P\L\C5;www.abodo.co.nz\l\C256; \H1.4221x; }
 73
     1
 44
1.0
1001
ACAD
1000
ACAD_MTEXT_COLUMN_INFO_BEGIN
1070
    75
1070
     2
1070
    79
1070
     0
1070
    76
1070
     1
1070
    78
1070
     0
1070
    48
1040
75.82908797969011
1070
    49
1040
12.5
1070
    50
1070
     1
1040
0.0
1000
ACAD_MTEXT_COLUMN_INFO_END
  0
MTEXT
  5
69B
102
{ACAD_XDICTIONARY
360
69C
102
}
330
68B
100
AcDbEntity
 67
     1
  8
0
100
AcDbMText
 10
153.3071631151076
 20
13.80142210902022
 30
0.0
 40
3.0
 41
44.00734591470086
 46
0.0
 71
     1
 72
     5
  1
{\fCambria|b0|i0|c0|p18;\H0.66667x;Drawing No.\P\H1.5x;R.C.F.12\H1.2222x; }
 73
     1
 44
1.0
1001
ACAD
1000
ACAD_MTEXT_COLUMN_INFO_BEGIN
1070
    75
1070
     2
1070
    79
1070
     0
1070
    76
1070
     1
1070
    78
1070
     0
1070
    48
1040
44.00734591470086
1070
    49
1040
12.5
1070
    50
1070
     1
1040
0.0
1000
ACAD_MTEXT_COLUMN_INFO_END
  0
MTEXT
  5
69D
102
{ACAD_XDICTIONARY
360
69E
102
}
330
68B
100
AcDbEntity
 67
     1
  8
0
100
AcDbMText
 10
153.294225110709
 20
27.56502405230072
 30
0.0
 40
3.0
 41
18.47308919738998
 46
0.0
 71
     1
 72
     5
  1
{\fCambria|b0|i0|c0|p18;\H0.66667x;Scale\P\H1.5x;1:2\H1.2283x; }
 73
     1
 44
1.0
1001
ACAD
1000
ACAD_MTEXT_COLUMN_INFO_BEGIN
1070
    75
1070
     2
1070
    79
1070
     0
1070
    76
1070
     1
1070
    78
1070
     0
1070
    48
1040
18.47308919738998
1070
    49
1040
12.5
1070
    50
1070
     1
1040
0.0
1000
ACAD_MTEXT_COLUMN_INFO_END
  0
MTEXT
  5
69F
102
{ACAD_XDICTIONARY
360
6A0
102
}
330
68B
100
AcDbEntity
 67
     1
  8
0
100
AcDbMText
 10
178.7052816359999
 20
27.55909313553877
 30
0.0
 40
3.0
 41
18.47308919738998
 46
0.0
 71
     1
 72
     5
  1
{\fCambria|b0|i0|c0|p18;\H0.66667x;Date\P\H1.5x;3/10/13\H1.2584x; }
 73
     1
 44
1.0
1001
ACAD
1000
ACAD_MTEXT_COLUMN_INFO_BEGIN
1070
    75
1070
     2
1070
    79
1070
     0
1070
    76
1070
     1
1070
    78
1070
     0
1070
    48
1040
18.47308919738998
1070
    49
1040
12.5
1070
    50
1070
     1
1040
0.0
1000
ACAD_MTEXT_COLUMN_INFO_END
  0
MTEXT
  5
6A1
102
{ACAD_XDICTIONARY
360
6A2
102
}
330
68B
100
AcDbEntity
 67
     1
  8
0
100
AcDbMText
 10
3.157133152992769
 20
26.63441117426942
 30
0.0
 40
3.0
 41
146.2564921628645
 46
0.0
 71
     1
 72
     5
  1
\pi48.925;{\fCambria|b0|i0|c0|p18;Rusticated Weatherboard\P\pi54.127;\H0.66667x;Packer Cavity Batten - Painted\H1.5498x; }
 73
     1
 44
1.0
1001
ACAD
1000
ACAD_MTEXT_COLUMN_INFO_BEGIN
1070
    75
1070
     2
1070
    79
1070
     0
1070
    76
1070
     1
1070
    78
1070
     0
1070
    48
1040
146.2564921628645
1070
    49
1040
12.5
1070
    50
1070
     1
1040
13.17581435375018
1000
ACAD_MTEXT_COLUMN_INFO_END
  0
VIEWPORT
  5
6A3
102
{ACAD_XDICTIONARY
360
6A4
102
}
330
68B
100
AcDbEntity
 67
     1
  8
0
100
AcDbViewport
 10
101.7640388058511
 20
158.6613838484662
 30
0.0
 40
197.2138113057167
 41
258.189575197857
 68
     2
 69
     2
 12
-700.1807446285627
 22
-975.7878160217099
 13
0.0
 23
0.0
 14
10.0
 24
10.0
 15
10.0
 25
10.0
 16
-0.0000000000002274
 26
0.0
 36
1203.379210980805
 17
1101.376386191091
 27
1457.314650658801
 37
0.0
 42
50.0
 43
0.0
 44
0.0
 45
516.3791496120958
 50
0.0
 51
0.0
 72
  1000
 90
   819808
  1

281
     0
 71
     1
 74
     0
110
0.0
120
0.0
130
0.0
111
1.0
121
0.0
131
0.0
112
0.0
122
1.0
132
0.0
 79
     0
146
0.0
170
     0
 61
     5
348
2F
292
     1
282
     1
141
0.0
142
0.0
 63
   250
421
  3355443
  0
ENDSEC
  0
SECTION
  2
OBJECTS
  0
DICTIONARY
  5
C
330
0
100
AcDbDictionary
281
     1
  3
ACAD_CIP_PREVIOUS_PRODUCT_INFO
350
1BE
  3
ACAD_COLOR
350
1B2
  3
ACAD_DETAILVIEWSTYLE
350
1B8
  3
ACAD_GROUP
350
D
  3
ACAD_IMAGE_DICT
350
6AC
  3
ACAD_IMAGE_VARS
350
6C7
  3
ACAD_LAYOUT
350
1A
  3
ACAD_MATERIAL
350
3B
  3
ACAD_MLEADERSTYLE
350
1A5
  3
ACAD_MLINESTYLE
350
17
  3
ACAD_PLOTSETTINGS
350
19
  3
ACAD_PLOTSTYLENAME
350
E
  3
ACAD_SCALELIST
350
13C
  3
ACAD_SECTIONVIEWSTYLE
350
1B5
  3
ACAD_TABLESTYLE
350
1A4
  3
ACAD_VISUALSTYLE
350
2A
  3
ACDB_RECOMPOSE_DATA
350
788
  3
AcDbVariableDictionary
350
17C
  3
WATERMARKS
350
15E
  0
DICTIONARY
  5
688
330
2
100
AcDbDictionary
280
     1
281
     1
  3
ACAD_LAYERSTATES
360
689
  0
DICTIONARY
  5
6CA
330
10
100
AcDbDictionary
280
     1
281
     1
  3
ADSK_XREC_LAYER_RECONCILED
360
6CB
  0
DICTIONARY
  5
6CC
330
40
100
AcDbDictionary
280
     1
281
     1
  3
ADSK_XREC_LAYER_RECONCILED
360
6CD
  0
DICTIONARY
  5
6CE
330
42
100
AcDbDictionary
280
     1
281
     1
  3
ADSK_XREC_LAYER_RECONCILED
360
6CF
  0
DICTIONARY
  5
6D0
330
44
100
AcDbDictionary
280
     1
281
     1
  3
ADSK_XREC_LAYER_RECONCILED
360
6D1
  0
DICTIONARY
  5
6D2
330
46
100
AcDbDictionary
280
     1
281
     1
  3
ADSK_XREC_LAYER_RECONCILED
360
6D3
  0
DICTIONARY
  5
6D4
330
4A
100
AcDbDictionary
280
     1
281
     1
  3
ADSK_XREC_LAYER_RECONCILED
360
6D5
  0
DICTIONARY
  5
6D6
330
4C
100
AcDbDictionary
280
     1
281
     1
  3
ADSK_XREC_LAYER_RECONCILED
360
6D7
  0
DICTIONARY
  5
6D8
330
50
100
AcDbDictionary
280
     1
281
     1
  3
ADSK_XREC_LAYER_RECONCILED
360
6D9
  0
DICTIONARY
  5
6DA
330
55
100
AcDbDictionary
280
     1
281
     1
  3
ADSK_XREC_LAYER_RECONCILED
360
6DB
  0
DICTIONARY
  5
6DC
330
78
100
AcDbDictionary
280
     1
281
     1
  3
ADSK_XREC_LAYER_RECONCILED
360
6DD
  0
DICTIONARY
  5
6DE
330
81
100
AcDbDictionary
280
     1
281
     1
  3
ADSK_XREC_LAYER_RECONCILED
360
6DF
  0
DICTIONARY
  5
6E0
330
B9
100
AcDbDictionary
280
     1
281
     1
  3
ADSK_XREC_LAYER_RECONCILED
360
6E1
  0
DICTIONARY
  5
6E2
330
BB
100
AcDbDictionary
280
     1
281
     1
  3
ADSK_XREC_LAYER_RECONCILED
360
6E3
  0
DICTIONARY
  5
6E4
330
FE
100
AcDbDictionary
280
     1
281
     1
  3
ADSK_XREC_LAYER_RECONCILED
360
6E5
  0
DICTIONARY
  5
6E6
330
675
100
AcDbDictionary
280
     1
281
     1
  3
ADSK_XREC_LAYER_RECONCILED
360
6E7
  0
DICTIONARY
  5
6E8
330
676
100
AcDbDictionary
280
     1
281
     1
  3
ADSK_XREC_LAYER_RECONCILED
360
6E9
  0
DICTIONARY
  5
6EA
330
677
100
AcDbDictionary
280
     1
281
     1
  3
ADSK_XREC_LAYER_RECONCILED
360
6EB
  0
DICTIONARY
  5
6A9
330
68B
100
AcDbDictionary
280
     1
281
     1
  0
DICTIONARY
  5
68D
330
68C
100
AcDbDictionary
280
     1
281
     1
  3
ASDK_XREC_ANNOTATION_SCALE_INFO
360
68E
  0
DICTIONARY
  5
698
330
697
100
AcDbDictionary
280
     1
281
     1
  3
ACAD_MTEXT_2008_RT
360
782
  0
DICTIONARY
  5
69A
330
699
100
AcDbDictionary
280
     1
281
     1
  3
ACAD_MTEXT_2008_RT
360
783
  0
DICTIONARY
  5
69C
330
69B
100
AcDbDictionary
280
     1
281
     1
  3
ACAD_MTEXT_2008_RT
360
784
  0
DICTIONARY
  5
69E
330
69D
100
AcDbDictionary
280
     1
281
     1
  3
ACAD_MTEXT_2008_RT
360
785
  0
DICTIONARY
  5
6A0
330
69F
100
AcDbDictionary
280
     1
281
     1
  3
ACAD_MTEXT_2008_RT
360
786
  0
DICTIONARY
  5
6A2
330
6A1
100
AcDbDictionary
280
     1
281
     1
  3
ACAD_MTEXT_2008_RT
360
787
  0
DICTIONARY
  5
6A4
330
6A3
100
AcDbDictionary
280
     1
281
     1
  3
ASDK_XREC_ANNOTATION_SCALE_INFO
360
6A5
  0
XRECORD
  5
1BE
102
{ACAD_REACTORS
330
C
102
}
330
C
100
AcDbXrecord
280
     1
300
ACD
300
2014
300
ACD_F_S
  0
DICTIONARY
  5
1B2
102
{ACAD_REACTORS
330
C
102
}
330
C
100
AcDbDictionary
281
     1
  0
DICTIONARY
  5
1B8
102
{ACAD_REACTORS
330
C
102
}
330
C
100
AcDbDictionary
281
     1
  3
Imperial24
350
1B9
  0
DICTIONARY
  5
D
102
{ACAD_REACTORS
330
C
102
}
330
C
100
AcDbDictionary
281
     1
  0
DICTIONARY
  5
6AC
102
{ACAD_REACTORS
330
C
102
}
330
C
100
AcDbDictionary
281
     1
  3
Badge-CM40070
350
6AD
  3
elements cladding logo
350
6AE
  3
Elements_Brandmark_RGB
350
6AF
  3
Elements_Brandmark_RGB-01
350
6B0
  0
RASTERVARIABLES
  5
6C7
102
{ACAD_REACTORS
330
C
102
}
330
C
100
AcDbRasterVariables
 90
        0
 70
     0
 71
     1
 72
     1
  0
DICTIONARY
  5
1A
102
{ACAD_REACTORS
330
C
102
}
330
C
100
AcDbDictionary
281
     1
  3
ABODO Template
350
68A
  3
Model
350
22
  0
DICTIONARY
  5
3B
102
{ACAD_REACTORS
330
C
102
}
330
C
100
AcDbDictionary
281
     1
  3
ByBlock
350
3D
  3
ByLayer
350
3C
  3
Global
350
3E
  0
DICTIONARY
  5
1A5
102
{ACAD_REACTORS
330
C
102
}
330
C
100
AcDbDictionary
281
     1
  3
Standard
350
1B4
  0
DICTIONARY
  5
17
102
{ACAD_REACTORS
330
C
102
}
330
C
100
AcDbDictionary
281
     1
  3
Standard
350
18
  0
DICTIONARY
  5
19
102
{ACAD_REACTORS
330
C
102
}
330
C
100
AcDbDictionary
281
     1
  0
ACDBDICTIONARYWDFLT
  5
E
102
{ACAD_REACTORS
330
C
102
}
330
C
100
AcDbDictionary
281
     1
  3
Normal
350
F
100
AcDbDictionaryWithDefault
340
F
  0
DICTIONARY
  5
13C
102
{ACAD_REACTORS
330
C
102
}
330
C
100
AcDbDictionary
281
     1
  3
A0
350
13D
  3
A1
350
13E
  3
A2
350
13F
  3
A3
350
140
  3
A4
350
141
  3
A5
350
142
  3
A6
350
143
  3
A7
350
144
  3
A8
350
145
  3
A9
350
146
  3
B0
350
147
  3
B1
350
148
  3
B2
350
149
  3
B3
350
14A
  3
B4
350
14B
  3
B5
350
14C
  3
B6
350
14D
  3
B7
350
14E
  3
B8
350
14F
  3
B9
350
150
  3
C0
350
151
  3
C1
350
152
  3
C2
350
153
  3
C3
350
154
  3
C4
350
155
  3
C5
350
156
  3
C6
350
157
  3
C7
350
158
  3
C8
350
159
  3
C9
350
15A
  3
D0
350
15B
  3
D1
350
15C
  3
D2
350
15D
  0
DICTIONARY
  5
1B5
102
{ACAD_REACTORS
330
C
102
}
330
C
100
AcDbDictionary
281
     1
  3
Imperial24
350
1B7
  0
DICTIONARY
  5
1A4
102
{ACAD_REACTORS
330
C
102
}
330
C
100
AcDbDictionary
281
     1
  3
Standard
350
1B3
  0
DICTIONARY
  5
2A
102
{ACAD_REACTORS
330
C
102
}
330
C
100
AcDbDictionary
281
     1
  3
2dWireframe
350
2F
  3
3D Hidden
350
31
  3
3dWireframe
350
30
  3
Basic
350
32
  3
Brighten
350
36
  3
ColorChange
350
3A
  3
Conceptual
350
34
  3
Dim
350
35
  3
EdgeColorOff
350
1B1
  3
Facepattern
350
39
  3
Flat
350
2B
  3
FlatWithEdges
350
2C
  3
Gouraud
350
2D
  3
GouraudWithEdges
350
2E
  3
Hidden
350
1A9
  3
JitterOff
350
1AF
  3
Linepattern
350
38
  3
OverhangOff
350
1B0
  3
Realistic
350
33
  3
Shaded
350
1AE
  3
Shaded with edges
350
1AD
  3
Shades of Gray
350
1AA
  3
Sketchy
350
1AB
  3
Thicken
350
37
  3
Wireframe
350
1A8
  3
X-Ray
350
1AC
  0
XRECORD
  5
788
102
{ACAD_REACTORS
330
C
102
}
330
C
100
AcDbXrecord
280
     1
 90
        1
330
1B3
330
1B7
330
1B9
330
697
330
699
330
69B
330
69D
330
69F
330
6A1
  0
DICTIONARY
  5
17C
102
{ACAD_REACTORS
330
C
102
}
330
C
100
AcDbDictionary
281
     1
  3
CANNOSCALE
350
17D
  3
CMLEADERSTYLE
350
6FC
  3
CTABLESTYLE
350
6FB
  3
CVIEWDETAILSTYLE
350
6FD
  3
CVIEWSECTIONSTYLE
350
6FE
  3
LAYEREVAL
350
701
  3
LAYERNOTIFY
350
702
  3
LIGHTINGUNITS
350
700
  3
MSLTSCALE
350
6FF
  0
DICTIONARY
  5
15E
102
{ACAD_REACTORS
330
C
102
}
330
C
100
AcDbDictionary
281
     1
  3
AC_WATERMARK
350
15F
  0
DICTIONARY
  5
689
102
{ACAD_REACTORS
330
688
102
}
330
688
100
AcDbDictionary
281
     1
  0
XRECORD
  5
6CB
102
{ACAD_REACTORS
330
6CA
102
}
330
6CA
100
AcDbXrecord
280
     1
290
     1
  0
XRECORD
  5
6CD
102
{ACAD_REACTORS
330
6CC
102
}
330
6CC
100
AcDbXrecord
280
     1
290
     1
  0
XRECORD
  5
6CF
102
{ACAD_REACTORS
330
6CE
102
}
330
6CE
100
AcDbXrecord
280
     1
290
     1
  0
XRECORD
  5
6D1
102
{ACAD_REACTORS
330
6D0
102
}
330
6D0
100
AcDbXrecord
280
     1
290
     1
  0
XRECORD
  5
6D3
102
{ACAD_REACTORS
330
6D2
102
}
330
6D2
100
AcDbXrecord
280
     1
290
     1
  0
XRECORD
  5
6D5
102
{ACAD_REACTORS
330
6D4
102
}
330
6D4
100
AcDbXrecord
280
     1
290
     1
  0
XRECORD
  5
6D7
102
{ACAD_REACTORS
330
6D6
102
}
330
6D6
100
AcDbXrecord
280
     1
290
     1
  0
XRECORD
  5
6D9
102
{ACAD_REACTORS
330
6D8
102
}
330
6D8
100
AcDbXrecord
280
     1
290
     1
  0
XRECORD
  5
6DB
102
{ACAD_REACTORS
330
6DA
102
}
330
6DA
100
AcDbXrecord
280
     1
290
     1
  0
XRECORD
  5
6DD
102
{ACAD_REACTORS
330
6DC
102
}
330
6DC
100
AcDbXrecord
280
     1
290
     1
  0
XRECORD
  5
6DF
102
{ACAD_REACTORS
330
6DE
102
}
330
6DE
100
AcDbXrecord
280
     1
290
     1
  0
XRECORD
  5
6E1
102
{ACAD_REACTORS
330
6E0
102
}
330
6E0
100
AcDbXrecord
280
     1
290
     1
  0
XRECORD
  5
6E3
102
{ACAD_REACTORS
330
6E2
102
}
330
6E2
100
AcDbXrecord
280
     1
290
     1
  0
XRECORD
  5
6E5
102
{ACAD_REACTORS
330
6E4
102
}
330
6E4
100
AcDbXrecord
280
     1
290
     1
  0
XRECORD
  5
6E7
102
{ACAD_REACTORS
330
6E6
102
}
330
6E6
100
AcDbXrecord
280
     1
290
     1
  0
XRECORD
  5
6E9
102
{ACAD_REACTORS
330
6E8
102
}
330
6E8
100
AcDbXrecord
280
     1
290
     1
  0
XRECORD
  5
6EB
102
{ACAD_REACTORS
330
6EA
102
}
330
6EA
100
AcDbXrecord
280
     1
290
     1
  0
XRECORD
  5
68E
102
{ACAD_REACTORS
330
68D
102
}
330
68D
100
AcDbXrecord
280
     1
 90
        1
340
13D
  0
XRECORD
  5
782
102
{ACAD_REACTORS
330
698
102
}
330
698
100
AcDbXrecord
280
     1
 40
3933011.0
  1
\pxi-1.5,l3,a0.83333,sm1.15;{\fCambria|b0|i0|c0|p18;\H0.66667x;1.^IWeatherboards must be coated with at least one coat all sides prior to fixing.    \P2.^IFixing points must be pre-drilled minimum 1mm smaller than the fastener.\P3.^ICut ends and exposed
  1
 timber must be sealed with an approved coating or end seal.}
  0
XRECORD
  5
783
102
{ACAD_REACTORS
330
69A
102
}
330
69A
100
AcDbXrecord
280
     1
 40
1229739.0
  1
\pxa0.58824,sm1;{\fCambria|b0|i0|c0|p18;© 2013 Abodo Wood Ltd, PO Box 8961, Symonds St, Auckland 1052\PPh 64 9) 302 9555 Fx 64 9) 302 9550\P\L\C5;www.abodo.co.nz\l\C256; }
  0
XRECORD
  5
784
102
{ACAD_REACTORS
330
69C
102
}
330
69C
100
AcDbXrecord
280
     1
 40
203623.0
  1
\pxa0.33333,sm1;{\fCambria|b0|i0|c0|p18;\H0.66667x;Drawing No.\P\H1.5x;R.C.F.12}
  0
XRECORD
  5
785
102
{ACAD_REACTORS
330
69E
102
}
330
69E
100
AcDbXrecord
280
     1
 40
150955.0
  1
\pxa0.33333,sm1;{\fCambria|b0|i0|c0|p18;\H0.66667x;Scale\P\pql;\H1.5x;1:2}
  0
XRECORD
  5
786
102
{ACAD_REACTORS
330
6A0
102
}
330
6A0
100
AcDbXrecord
280
     1
 40
158517.0
  1
\pxa0.33333,sm1,ql;{\fCambria|b0|i0|c0|p18;\H0.66667x;Date\P\H1.5x;3/10/13}
  0
XRECORD
  5
787
102
{ACAD_REACTORS
330
6A2
102
}
330
6A2
100
AcDbXrecord
280
     1
 40
618267.0
  1
\pxa0.33333,sm1,qc;{\fCambria|b0|i0|c0|p18;Rusticated Weatherboard\P\H0.66667x;Packer Cavity Batten - Painted}
  0
XRECORD
  5
6A5
102
{ACAD_REACTORS
330
6A4
102
}
330
6A4
100
AcDbXrecord
280
     1
 90
        1
340
13E
  0
ACDBDETAILVIEWSTYLE
  5
1B9
102
{ACAD_XDICTIONARY
360
780
102
}
102
{ACAD_REACTORS
330
1B8
102
}
330
1B8
100
AcDbModelDocViewStyle
 70
     0
  3
Imperial24
290
     0
100
AcDbDetailViewStyle
 70
     0
 71
     0
 90
        3
 71
     1
340
11
 62
   256
 40
0.24
340
0
 62
   256
 40
0.24
300

 40
0.36
280
     3
 71
     2
340
16
 90
       25
 62
   256
 71
     3
340
11
 62
   256
 40
0.24
 90
        1
 40
0.75
 90
        1
300
%<\AcVar ViewType \f "%tc1">% %<\AcVar ViewDetailId>%\PSCALE %<\AcVar ViewScale \f "%sn">%
 71
     4
340
16
 90
       25
 62
   256
340
16
 90
       25
 62
   256
280
     0
  0
IMAGEDEF
  5
6AD
102
{ACAD_REACTORS
330
6AC
102
}
330
6AC
100
AcDbRasterImageDef
 90
        0
  1
D:\ABODO Work\Badge-CM40070.png
 10
395.0
 20
452.0
 11
0.0846668360003387
 21
0.0846668360003387
280
     1
281
     2
  0
IMAGEDEF
  5
6AE
102
{ACAD_REACTORS
330
6AC
102
}
330
6AC
100
AcDbRasterImageDef
 90
        0
  1
D:\ABODO Work\elements cladding logo.jpg
 10
288.0
 20
106.0
 11
0.1154545454545454
 21
0.1154545454545454
280
     1
281
     5
  0
IMAGEDEF
  5
6AF
102
{ACAD_REACTORS
330
6AC
102
}
330
6AC
100
AcDbRasterImageDef
 90
        0
  1
.\Elements_Brandmark_RGB.jpg
 10
2649.0
 20
821.0
 11
0.0846666666666667
 21
0.0846666666666667
280
     1
281
     5
  0
IMAGEDEF
  5
6B0
102
{ACAD_REACTORS
330
6AC
330
6A8
102
}
330
6AC
100
AcDbRasterImageDef
 90
        0
  1
C:\Users\efar021\Desktop\Elements_Brandmark_RGB-01.png
 10
2338.0
 20
504.0
 11
0.0846668360003387
 21
0.0846668360003387
280
     1
281
     2
  0
LAYOUT
  5
68A
102
{ACAD_XDICTIONARY
360
757
102
}
102
{ACAD_REACTORS
330
1A
102
}
330
1A
100
AcDbPlotSettings
  1

  2
Adobe PDF
  4
A4
  6

 40
3.174999952316284
 41
3.174999952316284
 42
3.175003051757812
 43
3.17498779296875
 44
209.9733276367187
 45
297.0318298339844
 46
0.0
 47
0.0
 48
0.0
 49
0.0
140
0.0
141
0.0
142
1.0
143
1.0
 70
   688
 72
     1
 73
     0
 74
     5
  7

 75
    16
147
1.0
 76
     0
 77
     2
 78
   300
148
0.0
149
0.0
100
AcDbLayout
  1
ABODO Template
 70
     1
 71
     1
 10
-3.174999952316284
 20
-3.174999952316284
 11
206.7983276844024
 21
293.8568298816681
 12
0.0
 22
0.0
 32
0.0
 14
3.15713315299277
 24
2.209414789719573
 34
0.0
 15
200.3709444587095
 25
287.7561714473947
 35
0.0
146
0.0
 13
0.0
 23
0.0
 33
0.0
 16
1.0
 26
0.0
 36
0.0
 17
0.0
 27
1.0
 37
0.0
 76
     0
330
68B
331
68C
1001
ACAD_PSEXT
1000
Adobe PDF
1000
Adobe PDF Converter
1000
Documents\*.pdf
1000

1070
     0
  0
LAYOUT
  5
22
102
{ACAD_XDICTIONARY
360
71E
102
}
102
{ACAD_REACTORS
330
1A
102
}
330
1A
100
AcDbPlotSettings
  1

  2
none_device
  4

  6

 40
0.0
 41
0.0
 42
0.0
 43
0.0
 44
0.0
 45
0.0
 46
0.0
 47
0.0
 48
0.0
 49
0.0
140
0.0
141
0.0
142
1.0
143
1.0
 70
  1712
 72
     0
 73
     0
 74
     0
  7

 75
     0
147
1.0
 76
     0
 77
     2
 78
   300
148
0.0
149
0.0
100
AcDbLayout
  1
Model
 70
     1
 71
     0
 10
0.0
 20
0.0
 11
12.0
 21
9.0
 12
0.0
 22
0.0
 32
0.0
 14
1.000000000000000E+20
 24
1.000000000000000E+20
 34
1.000000000000000E+20
 15
-1.000000000000000E+20
 25
-1.000000000000000E+20
 35
-1.000000000000000E+20
146
0.0
 13
0.0
 23
0.0
 33
0.0
 16
1.0
 26
0.0
 36
0.0
 17
0.0
 27
1.0
 37
0.0
 76
     0
330
1F
331
29
  0
MATERIAL
  5
3D
102
{ACAD_REACTORS
330
3B
102
}
330
3B
100
AcDbMaterial
  1
ByBlock
 73
     1
 78
     1
172
     1
176
     1
270
     1
274
     1
  0
MATERIAL
  5
3C
102
{ACAD_REACTORS
330
3B
102
}
330
3B
100
AcDbMaterial
  1
ByLayer
 73
     1
 78
     1
172
     1
176
     1
270
     1
274
     1
  0
MATERIAL
  5
3E
102
{ACAD_REACTORS
330
3B
102
}
330
3B
100
AcDbMaterial
  1
Global
 73
     1
 78
     1
172
     1
176
     1
270
     1
274
     1
  0
MLEADERSTYLE
  5
1B4
102
{ACAD_REACTORS
330
1A5
102
}
330
1A5
100
AcDbMLeaderStyle
179
     2
170
     2
171
     1
172
     0
 90
        2
 40
0.0
 41
0.0
173
     1
 91
-1056964608
340
14
 92
       -2
290
     1
 42
0.09
291
     1
 43
0.36
  3
Standard
 44
0.18
300

342
11
174
     1
178
     6
175
     1
176
     0
 93
-1056964608
 45
0.18
292
     0
297
     0
 46
0.18
 94
-1056964608
 47
1.0
 49
1.0
140
1.0
293
     1
141
0.0
294
     1
177
     0
142
1.0
295
     0
296
     0
143
0.125
271
     0
272
     9
273
     9
298
     1
  0
MLINESTYLE
  5
18
102
{ACAD_REACTORS
330
17
102
}
330
17
100
AcDbMlineStyle
  2
STANDARD
 70
     0
  3

 62
   256
 51
90.0
 52
90.0
 71
     2
 49
0.5
 62
   256
  6
BYLAYER
 49
-0.5
 62
   256
  6
BYLAYER
  0
ACDBPLACEHOLDER
  5
F
102
{ACAD_REACTORS
330
E
102
}
330
E
  0
SCALE
  5
13D
102
{ACAD_REACTORS
330
13C
102
}
330
13C
100
AcDbScale
 70
     0
300
1:1
140
1.0
141
1.0
290
     1
  0
SCALE
  5
13E
102
{ACAD_REACTORS
330
13C
102
}
330
13C
100
AcDbScale
 70
     0
300
1:2
140
1.0
141
2.0
290
     0
  0
SCALE
  5
13F
102
{ACAD_REACTORS
330
13C
102
}
330
13C
100
AcDbScale
 70
     0
300
1:4
140
1.0
141
4.0
290
     0
  0
SCALE
  5
140
102
{ACAD_REACTORS
330
13C
102
}
330
13C
100
AcDbScale
 70
     0
300
1:5
140
1.0
141
5.0
290
     0
  0
SCALE
  5
141
102
{ACAD_REACTORS
330
13C
102
}
330
13C
100
AcDbScale
 70
     0
300
1:8
140
1.0
141
8.0
290
     0
  0
SCALE
  5
142
102
{ACAD_REACTORS
330
13C
102
}
330
13C
100
AcDbScale
 70
     0
300
1:10
140
1.0
141
10.0
290
     0
  0
SCALE
  5
143
102
{ACAD_REACTORS
330
13C
102
}
330
13C
100
AcDbScale
 70
     0
300
1:16
140
1.0
141
16.0
290
     0
  0
SCALE
  5
144
102
{ACAD_REACTORS
330
13C
102
}
330
13C
100
AcDbScale
 70
     0
300
1:20
140
1.0
141
20.0
290
     0
  0
SCALE
  5
145
102
{ACAD_REACTORS
330
13C
102
}
330
13C
100
AcDbScale
 70
     0
300
1:30
140
1.0
141
30.0
290
     0
  0
SCALE
  5
146
102
{ACAD_REACTORS
330
13C
102
}
330
13C
100
AcDbScale
 70
     0
300
1:40
140
1.0
141
40.0
290
     0
  0
SCALE
  5
147
102
{ACAD_REACTORS
330
13C
102
}
330
13C
100
AcDbScale
 70
     0
300
1:50
140
1.0
141
50.0
290
     0
  0
SCALE
  5
148
102
{ACAD_REACTORS
330
13C
102
}
330
13C
100
AcDbScale
 70
     0
300
1:100
140
1.0
141
100.0
290
     0
  0
SCALE
  5
149
102
{ACAD_REACTORS
330
13C
102
}
330
13C
100
AcDbScale
 70
     0
300
2:1
140
2.0
141
1.0
290
     0
  0
SCALE
  5
14A
102
{ACAD_REACTORS
330
13C
102
}
330
13C
100
AcDbScale
 70
     0
300
4:1
140
4.0
141
1.0
290
     0
  0
SCALE
  5
14B
102
{ACAD_REACTORS
330
13C
102
}
330
13C
100
AcDbScale
 70
     0
300
8:1
140
8.0
141
1.0
290
     0
  0
SCALE
  5
14C
102
{ACAD_REACTORS
330
13C
102
}
330
13C
100
AcDbScale
 70
     0
300
10:1
140
10.0
141
1.0
290
     0
  0
SCALE
  5
14D
102
{ACAD_REACTORS
330
13C
102
}
330
13C
100
AcDbScale
 70
     0
300
100:1
140
100.0
141
1.0
290
     0
  0
SCALE
  5
14E
102
{ACAD_REACTORS
330
13C
102
}
330
13C
100
AcDbScale
 70
     0
300
1/128" = 1'-0"
140
0.0078125
141
12.0
290
     0
  0
SCALE
  5
14F
102
{ACAD_REACTORS
330
13C
102
}
330
13C
100
AcDbScale
 70
     0
300
1/64" = 1'-0"
140
0.015625
141
12.0
290
     0
  0
SCALE
  5
150
102
{ACAD_REACTORS
330
13C
102
}
330
13C
100
AcDbScale
 70
     0
300
1/32" = 1'-0"
140
0.03125
141
12.0
290
     0
  0
SCALE
  5
151
102
{ACAD_REACTORS
330
13C
102
}
330
13C
100
AcDbScale
 70
     0
300
1/16" = 1'-0"
140
0.0625
141
12.0
290
     0
  0
SCALE
  5
152
102
{ACAD_REACTORS
330
13C
102
}
330
13C
100
AcDbScale
 70
     0
300
3/32" = 1'-0"
140
0.09375
141
12.0
290
     0
  0
SCALE
  5
153
102
{ACAD_REACTORS
330
13C
102
}
330
13C
100
AcDbScale
 70
     0
300
1/8" = 1'-0"
140
0.125
141
12.0
290
     0
  0
SCALE
  5
154
102
{ACAD_REACTORS
330
13C
102
}
330
13C
100
AcDbScale
 70
     0
300
3/16" = 1'-0"
140
0.1875
141
12.0
290
     0
  0
SCALE
  5
155
102
{ACAD_REACTORS
330
13C
102
}
330
13C
100
AcDbScale
 70
     0
300
1/4" = 1'-0"
140
0.25
141
12.0
290
     0
  0
SCALE
  5
156
102
{ACAD_REACTORS
330
13C
102
}
330
13C
100
AcDbScale
 70
     0
300
3/8" = 1'-0"
140
0.375
141
12.0
290
     0
  0
SCALE
  5
157
102
{ACAD_REACTORS
330
13C
102
}
330
13C
100
AcDbScale
 70
     0
300
1/2" = 1'-0"
140
0.5
141
12.0
290
     0
  0
SCALE
  5
158
102
{ACAD_REACTORS
330
13C
102
}
330
13C
100
AcDbScale
 70
     0
300
3/4" = 1'-0"
140
0.75
141
12.0
290
     0
  0
SCALE
  5
159
102
{ACAD_REACTORS
330
13C
102
}
330
13C
100
AcDbScale
 70
     0
300
1" = 1'-0"
140
1.0
141
12.0
290
     0
  0
SCALE
  5
15A
102
{ACAD_REACTORS
330
13C
102
}
330
13C
100
AcDbScale
 70
     0
300
1-1/2" = 1'-0"
140
1.5
141
12.0
290
     0
  0
SCALE
  5
15B
102
{ACAD_REACTORS
330
13C
102
}
330
13C
100
AcDbScale
 70
     0
300
3" = 1'-0"
140
3.0
141
12.0
290
     0
  0
SCALE
  5
15C
102
{ACAD_REACTORS
330
13C
102
}
330
13C
100
AcDbScale
 70
     0
300
6" = 1'-0"
140
6.0
141
12.0
290
     0
  0
SCALE
  5
15D
102
{ACAD_REACTORS
330
13C
102
}
330
13C
100
AcDbScale
 70
     0
300
1'-0" = 1'-0"
140
12.0
141
12.0
290
     0
  0
ACDBSECTIONVIEWSTYLE
  5
1B7
102
{ACAD_XDICTIONARY
360
77E
102
}
102
{ACAD_REACTORS
330
1B5
102
}
330
1B5
100
AcDbModelDocViewStyle
 70
     0
  3
Imperial24
290
     0
100
AcDbSectionViewStyle
 70
     0
 71
     0
 90
       78
 71
     1
340
11
 62
   256
 40
0.24
340
0
340
0
 62
   256
 40
0.24
300
I, O, Q, S, X, Z
 40
0.48
 90
        3
 40
0.18
 90
        1
 71
     2
340
1B6
 90
       25
 62
   256
340
16
 90
       50
 62
   256
 40
0.24
 40
0.0
 40
0.24
 71
     3
340
11
 62
   256
 40
0.24
 90
        1
 40
0.75
 90
        1
300
%<\AcVar ViewType \f "%tc1">% %<\AcVar ViewSectionStartId>%-%<\AcVar ViewSectionEndId>%\PSCALE %<\AcVar ViewScale \f "%sn">%
 71
     4
 62
   256
 62
   257
300
ANSI31
 40
1.0
 90
        0
290
     0
290
     0
 90
        6
 40
0.0
 40
1.570796326794896
 40
0.2617993877991494
 40
1.308996938995747
 40
-0.2617993877991494
 40
1.832595714594046
  0
TABLESTYLE
  5
1B3
102
{ACAD_XDICTIONARY
360
70D
102
}
102
{ACAD_REACTORS
330
1A4
102
}
330
1A4
100
AcDbTableStyle
280
     0
  3
Standard
 70
     0
 71
     0
 40
0.06
 41
0.06
280
     0
281
     0
  7
Standard
140
0.18
170
     2
 62
     0
 63
     7
283
     0
 90
      512
 91
        0
  1

274
    -2
284
     1
 64
     0
275
    -2
285
     1
 65
     0
276
    -2
286
     1
 66
     0
277
    -2
287
     1
 67
     0
278
    -2
288
     1
 68
     0
279
    -2
289
     1
 69
     0
  7
Standard
140
0.25
170
     5
 62
     0
 63
     7
283
     0
 90
      512
 91
        0
  1

274
    -2
284
     1
 64
     0
275
    -2
285
     1
 65
     0
276
    -2
286
     1
 66
     0
277
    -2
287
     1
 67
     0
278
    -2
288
     1
 68
     0
279
    -2
289
     1
 69
     0
  7
Standard
140
0.18
170
     5
 62
     0
 63
     7
283
     0
 90
      512
 91
        0
  1

274
    -2
284
     1
 64
     0
275
    -2
285
     1
 65
     0
276
    -2
286
     1
 66
     0
277
    -2
287
     1
 67
     0
278
    -2
288
     1
 68
     0
279
    -2
289
     1
 69
     0
  0
VISUALSTYLE
  5
2F
102
{ACAD_REACTORS
330
2A
102
}
330
2A
100
AcDbVisualStyle
  2
2dWireframe
 70
     4
177
     3
291
     0
 70
    58
 90
        0
176
     1
 90
        2
176
     1
 90
        0
176
     1
 90
        0
176
     1
 40
0.6
176
     1
 40
30.0
176
     1
 62
     7
420
 16777215
176
     1
 90
        1
176
     1
 90
        4
176
     1
 62
     7
176
     1
 62
   257
176
     1
 90
        1
176
     1
 90
        1
176
     1
 40
1.0
176
     1
 90
        0
176
     1
 62
   257
176
     1
 40
1.0
176
     1
 90
        1
176
     1
 90
        6
176
     1
 90
        2
176
     1
 62
     7
176
     1
 90
        5
176
     1
 90
        0
176
     1
 90
        0
176
     1
290
     0
176
     1
 90
        1
176
     1
 40
0.0
176
     1
 90
        0
176
     1
290
     1
176
     1
290
     1
176
     1
290
     0
176
     1
290
     0
176
     1
290
     0
176
     1
290
     0
176
     1
290
     0
176
     1
290
     0
176
     1
290
     0
176
     1
 90
       50
176
     1
 40
0.0
176
     1
 40
1.0
176
     1
 90
        0
176
     1
 62
    18
420
        0
176
     1
 90
       50
176
     1
 90
        3
176
     1
 62
     5
420
      255
176
     1
290
     0
176
     1
 90
       50
176
     1
 90
       50
176
     1
 90
       50
176
     1
290
     0
176
     1
 90
       50
176
     1
 62
   256
176
     0
 40
1.0
176
     0
 90
        2
176
     1
  1
strokes_ogs.tif
176
     1
290
     0
176
     1
 40
1.0
176
     1
 40
1.0
176
     1
  0
VISUALSTYLE
  5
31
102
{ACAD_REACTORS
330
2A
102
}
330
2A
100
AcDbVisualStyle
  2
3D Hidden
 70
     6
177
     3
291
     0
 70
    58
 90
        1
176
     1
 90
        2
176
     1
 90
        2
176
     1
 90
        0
176
     1
 40
0.6
176
     1
 40
30.0
176
     1
 62
     7
420
 16777215
176
     1
 90
        2
176
     1
 90
        2
176
     1
 62
     7
176
     1
 62
   257
176
     1
 90
        2
176
     1
 90
        1
176
     1
 40
40.0
176
     1
 90
        0
176
     1
 62
   257
176
     1
 40
1.0
176
     1
 90
        1
176
     1
 90
        6
176
     1
 90
        2
176
     1
 62
     7
176
     1
 90
        3
176
     1
 90
        0
176
     1
 90
        0
176
     1
290
     0
176
     1
 90
        1
176
     1
 40
0.0
176
     1
 90
        0
176
     1
290
     0
176
     1
290
     1
176
     1
290
     1
176
     1
290
     0
176
     1
290
     0
176
     1
290
     0
176
     1
290
     0
176
     1
290
     0
176
     1
290
     0
176
     1
 90
       50
176
     1
 40
0.0
176
     1
 40
1.0
176
     1
 90
        0
176
     1
 62
    18
420
        0
176
     1
 90
       50
176
     1
 90
        3
176
     1
 62
     5
420
      255
176
     1
290
     0
176
     1
 90
       50
176
     1
 90
       50
176
     1
 90
       50
176
     1
290
     0
176
     1
 90
       50
176
     1
 62
   256
176
     0
 40
1.0
176
     0
 90
        2
176
     1
  1
strokes_ogs.tif
176
     1
290
     0
176
     1
 40
1.0
176
     1
 40
1.0
176
     1
  0
VISUALSTYLE
  5
30
102
{ACAD_REACTORS
330
2A
102
}
330
2A
100
AcDbVisualStyle
  2
3dWireframe
 70
     5
177
     3
291
     0
 70
    58
 90
        0
176
     1
 90
        2
176
     1
 90
        0
176
     1
 90
        0
176
     1
 40
0.6
176
     1
 40
30.0
176
     1
 62
     7
420
 16777215
176
     1
 90
        1
176
     1
 90
        4
176
     1
 62
     7
176
     1
 62
   257
176
     1
 90
        1
176
     1
 90
        1
176
     1
 40
1.0
176
     1
 90
        0
176
     1
 62
   257
176
     1
 40
1.0
176
     1
 90
        1
176
     1
 90
        6
176
     1
 90
        2
176
     1
 62
     7
176
     1
 90
        5
176
     1
 90
        0
176
     1
 90
        0
176
     1
290
     0
176
     1
 90
        1
176
     1
 40
0.0
176
     1
 90
        0
176
     1
290
     0
176
     1
290
     1
176
     1
290
     1
176
     1
290
     0
176
     1
290
     0
176
     1
290
     0
176
     1
290
     0
176
     1
290
     0
176
     1
290
     0
176
     1
 90
       50
176
     1
 40
0.0
176
     1
 40
1.0
176
     1
 90
        0
176
     1
 62
    18
420
        0
176
     1
 90
       50
176
     1
 90
        3
176
     1
 62
     5
420
      255
176
     1
290
     0
176
     1
 90
       50
176
     1
 90
       50
176
     1
 90
       50
176
     1
290
     0
176
     1
 90
       50
176
     1
 62
   256
176
     0
 40
1.0
176
     0
 90
        2
176
     1
  1
strokes_ogs.tif
176
     1
290
     0
176
     1
 40
1.0
176
     1
 40
1.0
176
     1
  0
VISUALSTYLE
  5
32
102
{ACAD_REACTORS
330
2A
102
}
330
2A
100
AcDbVisualStyle
  2
Basic
 70
     7
177
     3
291
     1
 70
    58
 90
        1
176
     1
 90
        0
176
     1
 90
        1
176
     1
 90
        0
176
     1
 40
0.6
176
     1
 40
30.0
176
     1
 62
     7
420
 16777215
176
     1
 90
        0
176
     1
 90
        4
176
     1
 62
     7
176
     1
 62
   257
176
     1
 90
        1
176
     1
 90
        1
176
     1
 40
1.0
176
     1
 90
        8
176
     1
 62
     7
176
     1
 40
1.0
176
     1
 90
        1
176
     1
 90
        6
176
     1
 90
        2
176
     1
 62
     7
176
     1
 90
        5
176
     1
 90
        0
176
     1
 90
        0
176
     1
290
     0
176
     1
 90
        1
176
     1
 40
0.0
176
     1
 90
        0
176
     1
290
     0
176
     1
290
     1
176
     1
290
     1
176
     1
290
     0
176
     1
290
     0
176
     1
290
     0
176
     1
290
     0
176
     1
290
     0
176
     1
290
     0
176
     1
 90
       50
176
     1
 40
0.0
176
     1
 40
1.0
176
     1
 90
        0
176
     1
 62
    18
420
        0
176
     1
 90
       50
176
     1
 90
        3
176
     1
 62
     5
420
      255
176
     1
290
     0
176
     1
 90
       50
176
     1
 90
       50
176
     1
 90
       50
176
     1
290
     0
176
     1
 90
       50
176
     1
 62
   256
176
     0
 40
1.0
176
     0
 90
        2
176
     1
  1
strokes_ogs.tif
176
     1
290
     0
176
     1
 40
1.0
176
     1
 40
1.0
176
     1
  0
VISUALSTYLE
  5
36
102
{ACAD_REACTORS
330
2A
102
}
330
2A
100
AcDbVisualStyle
  2
Brighten
 70
    12
177
     3
291
     1
 70
    58
 90
        2
176
     1
 90
        2
176
     1
 90
        0
176
     1
 90
        0
176
     1
 40
0.6
176
     1
 40
30.0
176
     1
 62
     7
420
 16777215
176
     1
 90
        1
176
     1
 90
        4
176
     1
 62
     7
176
     1
 62
   257
176
     1
 90
        1
176
     1
 90
        1
176
     1
 40
1.0
176
     1
 90
        8
176
     1
 62
     7
176
     1
 40
1.0
176
     1
 90
        1
176
     1
 90
        6
176
     1
 90
        2
176
     1
 62
     7
176
     1
 90
        5
176
     1
 90
        0
176
     1
 90
        0
176
     1
290
     0
176
     1
 90
        1
176
     1
 40
50.0
176
     1
 90
        0
176
     1
290
     0
176
     1
290
     1
176
     1
290
     1
176
     1
290
     0
176
     1
290
     0
176
     1
290
     0
176
     1
290
     0
176
     1
290
     0
176
     1
290
     0
176
     1
 90
       50
176
     1
 40
0.0
176
     1
 40
1.0
176
     1
 90
        0
176
     1
 62
    18
420
        0
176
     1
 90
       50
176
     1
 90
        3
176
     1
 62
     5
420
      255
176
     1
290
     0
176
     1
 90
       50
176
     1
 90
       50
176
     1
 90
       50
176
     1
290
     0
176
     1
 90
       50
176
     1
 62
   256
176
     0
 40
1.0
176
     0
 90
        2
176
     1
  1
strokes_ogs.tif
176
     1
290
     0
176
     1
 40
1.0
176
     1
 40
1.0
176
     1
  0
VISUALSTYLE
  5
3A
102
{ACAD_REACTORS
330
2A
102
}
330
2A
100
AcDbVisualStyle
  2
ColorChange
 70
    16
177
     3
291
     1
 70
    58
 90
        2
176
     1
 90
        2
176
     1
 90
        3
176
     1
 90
        0
176
     1
 40
0.6
176
     1
 40
30.0
176
     1
 62
     8
420
  8421504
176
     1
 90
        1
176
     1
 90
        4
176
     1
 62
     7
176
     1
 62
   257
176
     1
 90
        1
176
     1
 90
        1
176
     1
 40
1.0
176
     1
 90
        8
176
     1
 62
     8
420
  8421504
176
     1
 40
1.0
176
     1
 90
        1
176
     1
 90
        6
176
     1
 90
        2
176
     1
 62
     7
176
     1
 90
        5
176
     1
 90
        0
176
     1
 90
        0
176
     1
290
     0
176
     1
 90
        1
176
     1
 40
0.0
176
     1
 90
        0
176
     1
290
     0
176
     1
290
     1
176
     1
290
     1
176
     1
290
     0
176
     1
290
     0
176
     1
290
     0
176
     1
290
     0
176
     1
290
     0
176
     1
290
     0
176
     1
 90
       50
176
     1
 40
0.0
176
     1
 40
1.0
176
     1
 90
        0
176
     1
 62
    18
420
        0
176
     1
 90
       50
176
     1
 90
        3
176
     1
 62
     5
420
      255
176
     1
290
     0
176
     1
 90
       50
176
     1
 90
       50
176
     1
 90
       50
176
     1
290
     0
176
     1
 90
       50
176
     1
 62
   256
176
     0
 40
1.0
176
     0
 90
        2
176
     1
  1
strokes_ogs.tif
176
     1
290
     0
176
     1
 40
1.0
176
     1
 40
1.0
176
     1
  0
VISUALSTYLE
  5
34
102
{ACAD_REACTORS
330
2A
102
}
330
2A
100
AcDbVisualStyle
  2
Conceptual
 70
     9
177
     3
291
     0
 70
    58
 90
        3
176
     1
 90
        2
176
     1
 90
        0
176
     1
 90
        0
176
     1
 40
0.6
176
     1
 40
30.0
176
     1
 62
     7
420
 16777215
176
     1
 90
        2
176
     1
 90
        2
176
     1
 62
     7
176
     1
 62
   257
176
     1
 90
        1
176
     1
 90
        1
176
     1
 40
40.0
176
     1
 90
        8
176
     1
 62
     7
176
     1
 40
1.0
176
     1
 90
        1
176
     1
 90
        6
176
     1
 90
        2
176
     1
 62
     7
176
     1
 90
        3
176
     1
 90
        0
176
     1
 90
        0
176
     1
290
     0
176
     1
 90
        1
176
     1
 40
0.0
176
     1
 90
        0
176
     1
290
     0
176
     1
290
     1
176
     1
290
     1
176
     1
290
     0
176
     1
290
     0
176
     1
290
     0
176
     1
290
     0
176
     1
290
     0
176
     1
290
     0
176
     1
 90
       50
176
     1
 40
0.0
176
     1
 40
1.0
176
     1
 90
        0
176
     1
 62
    18
420
        0
176
     1
 90
       50
176
     1
 90
        3
176
     1
 62
     5
420
      255
176
     1
290
     0
176
     1
 90
       50
176
     1
 90
       50
176
     1
 90
       50
176
     1
290
     0
176
     1
 90
       50
176
     1
 62
   256
176
     0
 40
1.0
176
     0
 90
        2
176
     1
  1
strokes_ogs.tif
176
     1
290
     0
176
     1
 40
1.0
176
     1
 40
1.0
176
     1
  0
VISUALSTYLE
  5
35
102
{ACAD_REACTORS
330
2A
102
}
330
2A
100
AcDbVisualStyle
  2
Dim
 70
    11
177
     3
291
     1
 70
    58
 90
        2
176
     1
 90
        2
176
     1
 90
        0
176
     1
 90
        0
176
     1
 40
0.6
176
     1
 40
30.0
176
     1
 62
     7
420
 16777215
176
     1
 90
        1
176
     1
 90
        4
176
     1
 62
     7
176
     1
 62
   257
176
     1
 90
        1
176
     1
 90
        1
176
     1
 40
1.0
176
     1
 90
        8
176
     1
 62
     7
176
     1
 40
1.0
176
     1
 90
        1
176
     1
 90
        6
176
     1
 90
        2
176
     1
 62
     7
176
     1
 90
        5
176
     1
 90
        0
176
     1
 90
        0
176
     1
290
     0
176
     1
 90
        1
176
     1
 40
-50.0
176
     1
 90
        0
176
     1
290
     0
176
     1
290
     1
176
     1
290
     1
176
     1
290
     0
176
     1
290
     0
176
     1
290
     0
176
     1
290
     0
176
     1
290
     0
176
     1
290
     0
176
     1
 90
       50
176
     1
 40
0.0
176
     1
 40
1.0
176
     1
 90
        0
176
     1
 62
    18
420
        0
176
     1
 90
       50
176
     1
 90
        3
176
     1
 62
     5
420
      255
176
     1
290
     0
176
     1
 90
       50
176
     1
 90
       50
176
     1
 90
       50
176
     1
290
     0
176
     1
 90
       50
176
     1
 62
   256
176
     0
 40
1.0
176
     0
 90
        2
176
     1
  1
strokes_ogs.tif
176
     1
290
     0
176
     1
 40
1.0
176
     1
 40
1.0
176
     1
  0
VISUALSTYLE
  5
1B1
102
{ACAD_REACTORS
330
2A
102
}
330
2A
100
AcDbVisualStyle
  2
EdgeColorOff
 70
    22
177
     3
291
     1
 70
    58
 90
        2
176
     0
 90
        2
176
     0
 90
        0
176
     0
 90
        0
176
     0
 40
0.6
176
     0
 40
30.0
176
     0
 62
     7
420
 16777215
176
     0
 90
        1
176
     0
 90
        4
176
     0
 62
     7
176
     0
 62
   257
176
     0
 90
        1
176
     0
 90
        1
176
     0
 40
1.0
176
     0
 90
        8
176
     2
 62
     7
176
     0
 40
1.0
176
     0
 90
        1
176
     0
 90
        6
176
     0
 90
        2
176
     0
 62
     7
176
     0
 90
        5
176
     0
 90
        0
176
     0
 90
        0
176
     0
290
     0
176
     0
 90
        1
176
     0
 40
0.0
176
     0
 90
        0
176
     0
290
     0
176
     0
290
     1
176
     0
290
     1
176
     0
290
     0
176
     0
290
     0
176
     0
290
     0
176
     0
290
     0
176
     0
290
     0
176
     0
290
     0
176
     0
 90
       50
176
     0
 40
0.0
176
     0
 40
1.0
176
     0
 90
        0
176
     0
 62
    18
420
        0
176
     0
 90
       50
176
     0
 90
        3
176
     0
 62
     5
420
      255
176
     0
290
     0
176
     0
 90
       50
176
     0
 90
       50
176
     0
 90
       50
176
     0
290
     0
176
     0
 90
       50
176
     0
 62
   256
176
     0
 40
1.0
176
     0
 90
        2
176
     0
  1
strokes_ogs.tif
176
     0
290
     0
176
     0
 40
1.0
176
     0
 40
1.0
176
     0
  0
VISUALSTYLE
  5
39
102
{ACAD_REACTORS
330
2A
102
}
330
2A
100
AcDbVisualStyle
  2
Facepattern
 70
    15
177
     3
291
     1
 70
    58
 90
        2
176
     1
 90
        2
176
     1
 90
        0
176
     1
 90
        0
176
     1
 40
0.6
176
     1
 40
30.0
176
     1
 62
     7
420
 16777215
176
     1
 90
        1
176
     1
 90
        4
176
     1
 62
     7
176
     1
 62
   257
176
     1
 90
        1
176
     1
 90
        1
176
     1
 40
1.0
176
     1
 90
        8
176
     1
 62
     7
176
     1
 40
1.0
176
     1
 90
        1
176
     1
 90
        6
176
     1
 90
        2
176
     1
 62
     7
176
     1
 90
        5
176
     1
 90
        0
176
     1
 90
        0
176
     1
290
     0
176
     1
 90
        1
176
     1
 40
0.0
176
     1
 90
        0
176
     1
290
     0
176
     1
290
     1
176
     1
290
     1
176
     1
290
     0
176
     1
290
     0
176
     1
290
     0
176
     1
290
     0
176
     1
290
     0
176
     1
290
     0
176
     1
 90
       50
176
     1
 40
0.0
176
     1
 40
1.0
176
     1
 90
        0
176
     1
 62
    18
420
        0
176
     1
 90
       50
176
     1
 90
        3
176
     1
 62
     5
420
      255
176
     1
290
     0
176
     1
 90
       50
176
     1
 90
       50
176
     1
 90
       50
176
     1
290
     0
176
     1
 90
       50
176
     1
 62
   256
176
     0
 40
1.0
176
     0
 90
        2
176
     1
  1
strokes_ogs.tif
176
     1
290
     0
176
     1
 40
1.0
176
     1
 40
1.0
176
     1
  0
VISUALSTYLE
  5
2B
102
{ACAD_REACTORS
330
2A
102
}
330
2A
100
AcDbVisualStyle
  2
Flat
 70
     0
177
     3
291
     1
 70
    58
 90
        2
176
     1
 90
        1
176
     1
 90
        1
176
     1
 90
        2
176
     1
 40
0.6
176
     1
 40
30.0
176
     1
 62
     7
420
 16777215
176
     1
 90
        0
176
     1
 90
        4
176
     1
 62
     7
176
     1
 62
   257
176
     1
 90
        1
176
     1
 90
        1
176
     1
 40
1.0
176
     1
 90
        8
176
     1
 62
     7
176
     1
 40
1.0
176
     1
 90
        1
176
     1
 90
        6
176
     1
 90
        2
176
     1
 62
     7
176
     1
 90
        5
176
     1
 90
        0
176
     1
 90
        0
176
     1
290
     0
176
     1
 90
       13
176
     1
 40
0.0
176
     1
 90
        0
176
     1
290
     0
176
     1
290
     1
176
     1
290
     1
176
     1
290
     0
176
     1
290
     0
176
     1
290
     0
176
     1
290
     0
176
     1
290
     0
176
     1
290
     0
176
     1
 90
       50
176
     1
 40
0.0
176
     1
 40
1.0
176
     1
 90
        0
176
     1
 62
    18
420
        0
176
     1
 90
       50
176
     1
 90
        3
176
     1
 62
     5
420
      255
176
     1
290
     0
176
     1
 90
       50
176
     1
 90
       50
176
     1
 90
       50
176
     1
290
     0
176
     1
 90
       50
176
     1
 62
   256
176
     0
 40
1.0
176
     0
 90
        2
176
     1
  1
strokes_ogs.tif
176
     1
290
     0
176
     1
 40
1.0
176
     1
 40
1.0
176
     1
  0
VISUALSTYLE
  5
2C
102
{ACAD_REACTORS
330
2A
102
}
330
2A
100
AcDbVisualStyle
  2
FlatWithEdges
 70
     1
177
     3
291
     1
 70
    58
 90
        2
176
     1
 90
        1
176
     1
 90
        1
176
     1
 90
        2
176
     1
 40
0.6
176
     1
 40
30.0
176
     1
 62
     7
420
 16777215
176
     1
 90
        1
176
     1
 90
        4
176
     1
 62
     7
176
     1
 62
   257
176
     1
 90
        1
176
     1
 90
        1
176
     1
 40
1.0
176
     1
 90
        0
176
     1
 62
   257
176
     1
 40
1.0
176
     1
 90
        1
176
     1
 90
        6
176
     1
 90
        2
176
     1
 62
     7
176
     1
 90
        5
176
     1
 90
        0
176
     1
 90
        0
176
     1
290
     0
176
     1
 90
       13
176
     1
 40
0.0
176
     1
 90
        0
176
     1
290
     0
176
     1
290
     1
176
     1
290
     1
176
     1
290
     0
176
     1
290
     0
176
     1
290
     0
176
     1
290
     0
176
     1
290
     0
176
     1
290
     0
176
     1
 90
       50
176
     1
 40
0.0
176
     1
 40
1.0
176
     1
 90
        0
176
     1
 62
    18
420
        0
176
     1
 90
       50
176
     1
 90
        3
176
     1
 62
     5
420
      255
176
     1
290
     0
176
     1
 90
       50
176
     1
 90
       50
176
     1
 90
       50
176
     1
290
     0
176
     1
 90
       50
176
     1
 62
   256
176
     0
 40
1.0
176
     0
 90
        2
176
     1
  1
strokes_ogs.tif
176
     1
290
     0
176
     1
 40
1.0
176
     1
 40
1.0
176
     1
  0
VISUALSTYLE
  5
2D
102
{ACAD_REACTORS
330
2A
102
}
330
2A
100
AcDbVisualStyle
  2
Gouraud
 70
     2
177
     3
291
     1
 70
    58
 90
        2
176
     1
 90
        2
176
     1
 90
        1
176
     1
 90
        2
176
     1
 40
0.6
176
     1
 40
30.0
176
     1
 62
     7
420
 16777215
176
     1
 90
        0
176
     1
 90
        4
176
     1
 62
     7
176
     1
 62
   257
176
     1
 90
        1
176
     1
 90
        1
176
     1
 40
1.0
176
     1
 90
        0
176
     1
 62
     7
176
     1
 40
1.0
176
     1
 90
        1
176
     1
 90
        6
176
     1
 90
        2
176
     1
 62
     7
176
     1
 90
        5
176
     1
 90
        0
176
     1
 90
        0
176
     1
290
     0
176
     1
 90
       13
176
     1
 40
0.0
176
     1
 90
        0
176
     1
290
     0
176
     1
290
     1
176
     1
290
     1
176
     1
290
     0
176
     1
290
     0
176
     1
290
     0
176
     1
290
     0
176
     1
290
     0
176
     1
290
     0
176
     1
 90
       50
176
     1
 40
0.0
176
     1
 40
1.0
176
     1
 90
        0
176
     1
 62
    18
420
        0
176
     1
 90
       50
176
     1
 90
        3
176
     1
 62
     5
420
      255
176
     1
290
     0
176
     1
 90
       50
176
     1
 90
       50
176
     1
 90
       50
176
     1
290
     0
176
     1
 90
       50
176
     1
 62
   256
176
     0
 40
1.0
176
     0
 90
        2
176
     1
  1
strokes_ogs.tif
176
     1
290
     0
176
     1
 40
1.0
176
     1
 40
1.0
176
     1
  0
VISUALSTYLE
  5
2E
102
{ACAD_REACTORS
330
2A
102
}
330
2A
100
AcDbVisualStyle
  2
GouraudWithEdges
 70
     3
177
     3
291
     1
 70
    58
 90
        2
176
     1
 90
        2
176
     1
 90
        1
176
     1
 90
        2
176
     1
 40
0.6
176
     1
 40
30.0
176
     1
 62
     7
420
 16777215
176
     1
 90
        1
176
     1
 90
        4
176
     1
 62
     7
176
     1
 62
   257
176
     1
 90
        1
176
     1
 90
        1
176
     1
 40
1.0
176
     1
 90
        0
176
     1
 62
   257
176
     1
 40
1.0
176
     1
 90
        1
176
     1
 90
        6
176
     1
 90
        2
176
     1
 62
     7
176
     1
 90
        5
176
     1
 90
        0
176
     1
 90
        0
176
     1
290
     0
176
     1
 90
       13
176
     1
 40
0.0
176
     1
 90
        0
176
     1
290
     0
176
     1
290
     1
176
     1
290
     1
176
     1
290
     0
176
     1
290
     0
176
     1
290
     0
176
     1
290
     0
176
     1
290
     0
176
     1
290
     0
176
     1
 90
       50
176
     1
 40
0.0
176
     1
 40
1.0
176
     1
 90
        0
176
     1
 62
    18
420
        0
176
     1
 90
       50
176
     1
 90
        3
176
     1
 62
     5
420
      255
176
     1
290
     0
176
     1
 90
       50
176
     1
 90
       50
176
     1
 90
       50
176
     1
290
     0
176
     1
 90
       50
176
     1
 62
   256
176
     0
 40
1.0
176
     0
 90
        2
176
     1
  1
strokes_ogs.tif
176
     1
290
     0
176
     1
 40
1.0
176
     1
 40
1.0
176
     1
  0
VISUALSTYLE
  5
1A9
102
{ACAD_REACTORS
330
2A
102
}
330
2A
100
AcDbVisualStyle
  2
Hidden
 70
     6
177
     3
291
     0
 70
    58
 90
        1
176
     1
 90
        2
176
     1
 90
        2
176
     1
 90
        0
176
     1
 40
0.6
176
     1
 40
30.0
176
     1
 62
     7
420
 16777215
176
     1
 90
        2
176
     1
 90
        2
176
     1
 62
     7
176
     1
 62
   257
176
     1
 90
        2
176
     1
 90
        1
176
     1
 40
40.0
176
     1
 90
        0
176
     1
 62
   257
176
     1
 40
1.0
176
     1
 90
        1
176
     1
 90
        6
176
     1
 90
        2
176
     1
 62
     7
176
     1
 90
        3
176
     1
 90
        0
176
     1
 90
        0
176
     1
290
     0
176
     1
 90
        1
176
     1
 40
0.0
176
     1
 90
        0
176
     1
290
     0
176
     1
290
     1
176
     1
290
     1
176
     1
290
     0
176
     1
290
     0
176
     1
290
     0
176
     1
290
     0
176
     1
290
     0
176
     1
290
     0
176
     1
 90
       50
176
     1
 40
0.0
176
     1
 40
1.0
176
     1
 90
        0
176
     1
 62
    18
420
        0
176
     1
 90
       50
176
     1
 90
        3
176
     1
 62
     5
420
      255
176
     1
290
     0
176
     1
 90
       50
176
     1
 90
       50
176
     1
 90
       50
176
     1
290
     0
176
     1
 90
       50
176
     1
 62
   256
176
     0
 40
1.0
176
     0
 90
        2
176
     1
  1
strokes_ogs.tif
176
     1
290
     0
176
     1
 40
1.0
176
     1
 40
1.0
176
     1
  0
VISUALSTYLE
  5
1AF
102
{ACAD_REACTORS
330
2A
102
}
330
2A
100
AcDbVisualStyle
  2
JitterOff
 70
    20
177
     3
291
     1
 70
    58
 90
        2
176
     0
 90
        2
176
     0
 90
        0
176
     0
 90
        0
176
     0
 40
0.6
176
     0
 40
30.0
176
     0
 62
     7
420
 16777215
176
     0
 90
        1
176
     0
 90
        4
176
     0
 62
     7
176
     0
 62
   257
176
     0
 90
        1
176
     0
 90
        1
176
     0
 40
1.0
176
     0
 90
       10
176
     2
 62
     7
176
     0
 40
1.0
176
     0
 90
        1
176
     0
 90
        6
176
     0
 90
        2
176
     0
 62
     7
176
     0
 90
        5
176
     0
 90
        0
176
     0
 90
        0
176
     0
290
     0
176
     0
 90
        1
176
     0
 40
0.0
176
     0
 90
        0
176
     0
290
     0
176
     0
290
     1
176
     0
290
     1
176
     0
290
     0
176
     0
290
     0
176
     0
290
     0
176
     0
290
     0
176
     0
290
     0
176
     0
290
     0
176
     0
 90
       50
176
     0
 40
0.0
176
     0
 40
1.0
176
     0
 90
        0
176
     0
 62
    18
420
        0
176
     0
 90
       50
176
     0
 90
        3
176
     0
 62
     5
420
      255
176
     0
290
     0
176
     0
 90
       50
176
     0
 90
       50
176
     0
 90
       50
176
     0
290
     0
176
     0
 90
       50
176
     0
 62
   256
176
     0
 40
1.0
176
     0
 90
        2
176
     0
  1
strokes_ogs.tif
176
     0
290
     0
176
     0
 40
1.0
176
     0
 40
1.0
176
     0
  0
VISUALSTYLE
  5
38
102
{ACAD_REACTORS
330
2A
102
}
330
2A
100
AcDbVisualStyle
  2
Linepattern
 70
    14
177
     3
291
     1
 70
    58
 90
        2
176
     1
 90
        2
176
     1
 90
        0
176
     1
 90
        0
176
     1
 40
0.6
176
     1
 40
30.0
176
     1
 62
     7
420
 16777215
176
     1
 90
        1
176
     1
 90
        4
176
     1
 62
     7
176
     1
 62
   257
176
     1
 90
        7
176
     1
 90
        7
176
     1
 40
1.0
176
     1
 90
        8
176
     1
 62
     7
176
     1
 40
1.0
176
     1
 90
        1
176
     1
 90
        6
176
     1
 90
        2
176
     1
 62
     7
176
     1
 90
        5
176
     1
 90
        0
176
     1
 90
        0
176
     1
290
     0
176
     1
 90
        1
176
     1
 40
0.0
176
     1
 90
        0
176
     1
290
     0
176
     1
290
     1
176
     1
290
     1
176
     1
290
     0
176
     1
290
     0
176
     1
290
     0
176
     1
290
     0
176
     1
290
     0
176
     1
290
     0
176
     1
 90
       50
176
     1
 40
0.0
176
     1
 40
1.0
176
     1
 90
        0
176
     1
 62
    18
420
        0
176
     1
 90
       50
176
     1
 90
        3
176
     1
 62
     5
420
      255
176
     1
290
     0
176
     1
 90
       50
176
     1
 90
       50
176
     1
 90
       50
176
     1
290
     0
176
     1
 90
       50
176
     1
 62
   256
176
     0
 40
1.0
176
     0
 90
        2
176
     1
  1
strokes_ogs.tif
176
     1
290
     0
176
     1
 40
1.0
176
     1
 40
1.0
176
     1
  0
VISUALSTYLE
  5
1B0
102
{ACAD_REACTORS
330
2A
102
}
330
2A
100
AcDbVisualStyle
  2
OverhangOff
 70
    21
177
     3
291
     1
 70
    58
 90
        2
176
     0
 90
        2
176
     0
 90
        0
176
     0
 90
        0
176
     0
 40
0.6
176
     0
 40
30.0
176
     0
 62
     7
420
 16777215
176
     0
 90
        1
176
     0
 90
        4
176
     0
 62
     7
176
     0
 62
   257
176
     0
 90
        1
176
     0
 90
        1
176
     0
 40
1.0
176
     0
 90
        9
176
     2
 62
     7
176
     0
 40
1.0
176
     0
 90
        1
176
     0
 90
        6
176
     0
 90
        2
176
     0
 62
     7
176
     0
 90
        5
176
     0
 90
        0
176
     0
 90
        0
176
     0
290
     0
176
     0
 90
        1
176
     0
 40
0.0
176
     0
 90
        0
176
     0
290
     0
176
     0
290
     1
176
     0
290
     1
176
     0
290
     0
176
     0
290
     0
176
     0
290
     0
176
     0
290
     0
176
     0
290
     0
176
     0
290
     0
176
     0
 90
       50
176
     0
 40
0.0
176
     0
 40
1.0
176
     0
 90
        0
176
     0
 62
    18
420
        0
176
     0
 90
       50
176
     0
 90
        3
176
     0
 62
     5
420
      255
176
     0
290
     0
176
     0
 90
       50
176
     0
 90
       50
176
     0
 90
       50
176
     0
290
     0
176
     0
 90
       50
176
     0
 62
   256
176
     0
 40
1.0
176
     0
 90
        2
176
     0
  1
strokes_ogs.tif
176
     0
290
     0
176
     0
 40
1.0
176
     0
 40
1.0
176
     0
  0
VISUALSTYLE
  5
33
102
{ACAD_REACTORS
330
2A
102
}
330
2A
100
AcDbVisualStyle
  2
Realistic
 70
     8
177
     3
291
     0
 70
    58
 90
        2
176
     1
 90
        2
176
     1
 90
        0
176
     1
 90
        0
176
     1
 40
0.6
176
     1
 40
30.0
176
     1
 62
     7
420
 16777215
176
     1
 90
        1
176
     1
 90
        0
176
     1
 62
     7
176
     1
 62
   257
176
     1
 90
        1
176
     1
 90
        1
176
     1
 40
1.0
176
     1
 90
        8
176
     1
 62
     8
420
  7895160
176
     1
 40
1.0
176
     1
 90
        1
176
     1
 90
        6
176
     1
 90
        2
176
     1
 62
     7
176
     1
 90
        5
176
     1
 90
        0
176
     1
 90
        0
176
     1
290
     0
176
     1
 90
       13
176
     1
 40
0.0
176
     1
 90
        0
176
     1
290
     0
176
     1
290
     1
176
     1
290
     1
176
     1
290
     0
176
     1
290
     0
176
     1
290
     0
176
     1
290
     0
176
     1
290
     0
176
     1
290
     0
176
     1
 90
       50
176
     1
 40
0.0
176
     1
 40
1.0
176
     1
 90
        0
176
     1
 62
    18
420
        0
176
     1
 90
       50
176
     1
 90
        3
176
     1
 62
     5
420
      255
176
     1
290
     0
176
     1
 90
       50
176
     1
 90
       50
176
     1
 90
       50
176
     1
290
     0
176
     1
 90
       50
176
     1
 62
   256
176
     0
 40
1.0
176
     0
 90
        2
176
     1
  1
strokes_ogs.tif
176
     1
290
     0
176
     1
 40
1.0
176
     1
 40
1.0
176
     1
  0
VISUALSTYLE
  5
1AE
102
{ACAD_REACTORS
330
2A
102
}
330
2A
100
AcDbVisualStyle
  2
Shaded
 70
    27
177
     3
291
     0
 70
    58
 90
        2
176
     1
 90
        2
176
     1
 90
        1
176
     1
 90
        2
176
     1
 40
0.6
176
     1
 40
30.0
176
     1
 62
     7
420
 16777215
176
     1
 90
        0
176
     1
 90
        4
176
     1
 62
     7
176
     1
 62
   257
176
     1
 90
        1
176
     1
 90
        1
176
     1
 40
1.0
176
     1
 90
        8
176
     1
 62
   257
176
     1
 40
1.0
176
     1
 90
        1
176
     1
 90
        6
176
     1
 90
        2
176
     1
 62
     8
420
  7895160
176
     1
 90
        3
176
     1
 90
        0
176
     1
 90
        0
176
     1
290
     0
176
     1
 90
        5
176
     1
 40
0.0
176
     1
 90
        0
176
     1
290
     0
176
     1
290
     1
176
     1
290
     1
176
     1
290
     0
176
     1
290
     0
176
     1
290
     0
176
     1
290
     0
176
     1
290
     0
176
     1
290
     0
176
     1
 90
       50
176
     1
 40
0.0
176
     1
 40
1.0
176
     1
 90
        0
176
     1
 62
    18
420
        0
176
     1
 90
       50
176
     1
 90
        3
176
     1
 62
     5
420
      255
176
     1
290
     0
176
     1
 90
       50
176
     1
 90
       50
176
     1
 90
       50
176
     1
290
     0
176
     1
 90
       50
176
     1
 62
   256
176
     0
 40
1.0
176
     0
 90
        2
176
     1
  1
strokes_ogs.tif
176
     1
290
     0
176
     1
 40
1.0
176
     1
 40
1.0
176
     1
  0
VISUALSTYLE
  5
1AD
102
{ACAD_REACTORS
330
2A
102
}
330
2A
100
AcDbVisualStyle
  2
Shaded with edges
 70
    26
177
     3
291
     0
 70
    58
 90
        2
176
     1
 90
        2
176
     1
 90
        1
176
     1
 90
        2
176
     1
 40
0.6
176
     1
 40
30.0
176
     1
 62
     7
420
 16777215
176
     1
 90
        1
176
     1
 90
       10
176
     1
 62
     7
176
     1
 62
   257
176
     1
 90
        2
176
     1
 90
        1
176
     1
 40
1.0
176
     1
 90
        8
176
     1
 62
   257
176
     1
 40
1.0
176
     1
 90
        1
176
     1
 90
        6
176
     1
 90
        2
176
     1
 62
     7
176
     1
 90
        3
176
     1
 90
        0
176
     1
 90
        0
176
     1
290
     0
176
     1
 90
        5
176
     1
 40
0.0
176
     1
 90
        0
176
     1
290
     0
176
     1
290
     1
176
     1
290
     1
176
     1
290
     0
176
     1
290
     0
176
     1
290
     0
176
     1
290
     0
176
     1
290
     0
176
     1
290
     0
176
     1
 90
       50
176
     1
 40
0.0
176
     1
 40
1.0
176
     1
 90
        0
176
     1
 62
    18
420
        0
176
     1
 90
       50
176
     1
 90
        3
176
     1
 62
     5
420
      255
176
     1
290
     0
176
     1
 90
       50
176
     1
 90
       50
176
     1
 90
       50
176
     1
290
     0
176
     1
 90
       50
176
     1
 62
   256
176
     0
 40
1.0
176
     0
 90
        2
176
     1
  1
strokes_ogs.tif
176
     1
290
     0
176
     1
 40
1.0
176
     1
 40
1.0
176
     1
  0
VISUALSTYLE
  5
1AA
102
{ACAD_REACTORS
330
2A
102
}
330
2A
100
AcDbVisualStyle
  2
Shades of Gray
 70
    23
177
     3
291
     0
 70
    58
 90
        2
176
     1
 90
        2
176
     1
 90
        3
176
     1
 90
        0
176
     1
 40
0.6
176
     1
 40
30.0
176
     1
 62
     7
420
 16777215
176
     1
 90
        2
176
     1
 90
        2
176
     1
 62
     7
176
     1
 62
     7
176
     1
 90
        1
176
     1
 90
        1
176
     1
 40
40.0
176
     1
 90
        8
176
     1
 62
     7
176
     1
 40
1.0
176
     1
 90
        1
176
     1
 90
        6
176
     1
 90
        2
176
     1
 62
     7
176
     1
 90
        3
176
     1
 90
        0
176
     1
 90
        0
176
     1
290
     0
176
     1
 90
        1
176
     1
 40
0.0
176
     1
 90
        0
176
     1
290
     0
176
     1
290
     1
176
     1
290
     1
176
     1
290
     0
176
     1
290
     0
176
     1
290
     0
176
     1
290
     0
176
     1
290
     0
176
     1
290
     0
176
     1
 90
       50
176
     1
 40
0.0
176
     1
 40
1.0
176
     1
 90
        0
176
     1
 62
    18
420
        0
176
     1
 90
       50
176
     1
 90
        3
176
     1
 62
     5
420
      255
176
     1
290
     0
176
     1
 90
       50
176
     1
 90
       50
176
     1
 90
       50
176
     1
290
     0
176
     1
 90
       50
176
     1
 62
   256
176
     0
 40
1.0
176
     0
 90
        2
176
     1
  1
strokes_ogs.tif
176
     1
290
     0
176
     1
 40
1.0
176
     1
 40
1.0
176
     1
  0
VISUALSTYLE
  5
1AB
102
{ACAD_REACTORS
330
2A
102
}
330
2A
100
AcDbVisualStyle
  2
Sketchy
 70
    24
177
     3
291
     0
 70
    58
 90
        1
176
     1
 90
        2
176
     1
 90
        2
176
     1
 90
        0
176
     1
 40
0.6
176
     1
 40
30.0
176
     1
 62
     7
420
 16777215
176
     1
 90
        2
176
     1
 90
        2
176
     1
 62
     7
176
     1
 62
     7
176
     1
 90
        1
176
     1
 90
        1
176
     1
 40
40.0
176
     1
 90
       11
176
     1
 62
     7
176
     1
 40
1.0
176
     1
 90
        1
176
     1
 90
        6
176
     1
 90
        2
176
     1
 62
     7
176
     1
 90
        6
176
     1
 90
        0
176
     1
 90
        0
176
     1
290
     0
176
     1
 90
        1
176
     1
 40
0.0
176
     1
 90
        0
176
     1
290
     0
176
     1
290
     1
176
     1
290
     1
176
     1
290
     0
176
     1
290
     0
176
     1
290
     0
176
     1
290
     0
176
     1
290
     0
176
     1
290
     0
176
     1
 90
       50
176
     1
 40
0.0
176
     1
 40
1.0
176
     1
 90
        0
176
     1
 62
    18
420
        0
176
     1
 90
       50
176
     1
 90
        3
176
     1
 62
     5
420
      255
176
     1
290
     0
176
     1
 90
       50
176
     1
 90
       50
176
     1
 90
       50
176
     1
290
     0
176
     1
 90
       50
176
     1
 62
   256
176
     0
 40
1.0
176
     0
 90
        2
176
     1
  1
strokes_ogs.tif
176
     1
290
     0
176
     1
 40
1.0
176
     1
 40
1.0
176
     1
  0
VISUALSTYLE
  5
37
102
{ACAD_REACTORS
330
2A
102
}
330
2A
100
AcDbVisualStyle
  2
Thicken
 70
    13
177
     3
291
     1
 70
    58
 90
        2
176
     1
 90
        2
176
     1
 90
        0
176
     1
 90
        0
176
     1
 40
0.6
176
     1
 40
30.0
176
     1
 62
     7
420
 16777215
176
     1
 90
        1
176
     1
 90
        4
176
     1
 62
     7
176
     1
 62
   257
176
     1
 90
        1
176
     1
 90
        1
176
     1
 40
1.0
176
     1
 90
       12
176
     1
 62
     7
176
     1
 40
1.0
176
     1
 90
        1
176
     1
 90
        6
176
     1
 90
        2
176
     1
 62
     7
176
     1
 90
        5
176
     1
 90
        0
176
     1
 90
        0
176
     1
290
     0
176
     1
 90
        1
176
     1
 40
0.0
176
     1
 90
        0
176
     1
290
     0
176
     1
290
     1
176
     1
290
     1
176
     1
290
     0
176
     1
290
     0
176
     1
290
     0
176
     1
290
     0
176
     1
290
     0
176
     1
290
     0
176
     1
 90
       50
176
     1
 40
0.0
176
     1
 40
1.0
176
     1
 90
        0
176
     1
 62
    18
420
        0
176
     1
 90
       50
176
     1
 90
        3
176
     1
 62
     5
420
      255
176
     1
290
     0
176
     1
 90
       50
176
     1
 90
       50
176
     1
 90
       50
176
     1
290
     0
176
     1
 90
       50
176
     1
 62
   256
176
     0
 40
1.0
176
     0
 90
        2
176
     1
  1
strokes_ogs.tif
176
     1
290
     0
176
     1
 40
1.0
176
     1
 40
1.0
176
     1
  0
VISUALSTYLE
  5
1A8
102
{ACAD_REACTORS
330
2A
102
}
330
2A
100
AcDbVisualStyle
  2
Wireframe
 70
     5
177
     3
291
     0
 70
    58
 90
        0
176
     1
 90
        2
176
     1
 90
        0
176
     1
 90
        0
176
     1
 40
0.6
176
     1
 40
30.0
176
     1
 62
     7
420
 16777215
176
     1
 90
        1
176
     1
 90
        4
176
     1
 62
     7
176
     1
 62
   257
176
     1
 90
        1
176
     1
 90
        1
176
     1
 40
1.0
176
     1
 90
        0
176
     1
 62
   257
176
     1
 40
1.0
176
     1
 90
        1
176
     1
 90
        6
176
     1
 90
        2
176
     1
 62
     7
176
     1
 90
        3
176
     1
 90
        0
176
     1
 90
        0
176
     1
290
     0
176
     1
 90
        1
176
     1
 40
0.0
176
     1
 90
        0
176
     1
290
     0
176
     1
290
     1
176
     1
290
     1
176
     1
290
     0
176
     1
290
     0
176
     1
290
     0
176
     1
290
     0
176
     1
290
     0
176
     1
290
     0
176
     1
 90
       50
176
     1
 40
0.0
176
     1
 40
1.0
176
     1
 90
        0
176
     1
 62
    18
420
        0
176
     1
 90
       50
176
     1
 90
        3
176
     1
 62
     5
420
      255
176
     1
290
     0
176
     1
 90
       50
176
     1
 90
       50
176
     1
 90
       50
176
     1
290
     0
176
     1
 90
       50
176
     1
 62
   256
176
     0
 40
1.0
176
     0
 90
        2
176
     1
  1
strokes_ogs.tif
176
     1
290
     0
176
     1
 40
1.0
176
     1
 40
1.0
176
     1
  0
VISUALSTYLE
  5
1AC
102
{ACAD_REACTORS
330
2A
102
}
330
2A
100
AcDbVisualStyle
  2
X-Ray
 70
    25
177
     3
291
     0
 70
    58
 90
        2
176
     1
 90
        2
176
     1
 90
        1
176
     1
 90
        1
176
     1
 40
0.5
176
     1
 40
30.0
176
     1
 62
     7
420
 16777215
176
     1
 90
        1
176
     1
 90
        0
176
     1
 62
     7
176
     1
 62
   257
176
     1
 90
        1
176
     1
 90
        1
176
     1
 40
1.0
176
     1
 90
        8
176
     1
 62
     7
176
     1
 40
1.0
176
     1
 90
        1
176
     1
 90
        6
176
     1
 90
        2
176
     1
 62
     7
176
     1
 90
        3
176
     1
 90
        0
176
     1
 90
        0
176
     1
290
     0
176
     1
 90
       13
176
     1
 40
0.0
176
     1
 90
        0
176
     1
290
     0
176
     1
290
     1
176
     1
290
     1
176
     1
290
     0
176
     1
290
     0
176
     1
290
     0
176
     1
290
     0
176
     1
290
     0
176
     1
290
     0
176
     1
 90
       50
176
     1
 40
0.0
176
     1
 40
1.0
176
     1
 90
        0
176
     1
 62
    18
420
        0
176
     1
 90
       50
176
     1
 90
        3
176
     1
 62
     5
420
      255
176
     1
290
     0
176
     1
 90
       50
176
     1
 90
       50
176
     1
 90
       50
176
     1
290
     0
176
     1
 90
       50
176
     1
 62
   256
176
     0
 40
1.0
176
     0
 90
        2
176
     1
  1
strokes_ogs.tif
176
     1
290
     0
176
     1
 40
1.0
176
     1
 40
1.0
176
     1
  0
DICTIONARYVAR
  5
17D
102
{ACAD_REACTORS
330
17C
102
}
330
17C
100
DictionaryVariables
280
     0
  1
1:1
  0
DICTIONARYVAR
  5
6FC
102
{ACAD_REACTORS
330
17C
102
}
330
17C
100
DictionaryVariables
280
     0
  1
STANDARD
  0
DICTIONARYVAR
  5
6FB
102
{ACAD_REACTORS
330
17C
102
}
330
17C
100
DictionaryVariables
280
     0
  1
STANDARD
  0
DICTIONARYVAR
  5
6FD
102
{ACAD_REACTORS
330
17C
102
}
330
17C
100
DictionaryVariables
280
     0
  1
Imperial24
  0
DICTIONARYVAR
  5
6FE
102
{ACAD_REACTORS
330
17C
102
}
330
17C
100
DictionaryVariables
280
     0
  1
Imperial24
  0
DICTIONARYVAR
  5
701
102
{ACAD_REACTORS
330
17C
102
}
330
17C
100
DictionaryVariables
280
     0
  1
1
  0
DICTIONARYVAR
  5
702
102
{ACAD_REACTORS
330
17C
102
}
330
17C
100
DictionaryVariables
280
     0
  1
15
  0
DICTIONARYVAR
  5
700
102
{ACAD_REACTORS
330
17C
102
}
330
17C
100
DictionaryVariables
280
     0
  1
0
  0
DICTIONARYVAR
  5
6FF
102
{ACAD_REACTORS
330
17C
102
}
330
17C
100
DictionaryVariables
280
     0
  1
0
  0
XRECORD
  5
15F
102
{ACAD_REACTORS
330
15E
102
}
330
15E
100
AcDbXrecord
280
     1
1000
This DWG file was created in ArchiCAD(TM)®
  0
DICTIONARY
  5
780
330
1B9
100
AcDbDictionary
280
     1
281
     1
  3
ACAD_XREC_ROUNDTRIP
360
781
  0
DICTIONARY
  5
757
330
68A
100
AcDbDictionary
280
     1
281
     1
  0
DICTIONARY
  5
71E
330
22
100
AcDbDictionary
280
     1
281
     1
  0
DICTIONARY
  5
77E
330
1B7
100
AcDbDictionary
280
     1
281
     1
  3
ACAD_XREC_ROUNDTRIP
360
77F
  0
DICTIONARY
  5
70D
330
1B3
100
AcDbDictionary
280
     1
281
     1
  3
ACAD_ROUNDTRIP_2008_TABLESTYLE_CELLSTYLEMAP
360
77D
  0
XRECORD
  5
781
102
{ACAD_REACTORS
330
780
102
}
330
780
100
AcDbXrecord
280
     1
102
DISPLAYNAME
  1
Imperial24
102
FLAGS
 90
        0
  0
XRECORD
  5
77F
102
{ACAD_REACTORS
330
77E
102
}
330
77E
100
AcDbXrecord
280
     1
102
DISPLAYNAME
  1
Imperial24
102
FLAGS
 90
        0
  0
CELLSTYLEMAP
  5
77D
102
{ACAD_REACTORS
330
70D
102
}
330
70D
100
AcDbCellStyleMap
 90
        3
300
CELLSTYLE
  1
TABLEFORMAT_BEGIN
 90
        5
170
     1
 91
        0
 92
    32768
 62
   257
 93
        1
300
CONTENTFORMAT
  1
CONTENTFORMAT_BEGIN
 90
        0
 91
        0
 92
      512
 93
        0
300

 40
0.0
140
1.0
 94
        5
 62
     0
340
11
144
0.25
309
CONTENTFORMAT_END
171
     0
 94
        0
309
TABLEFORMAT_END
  1
CELLSTYLE_BEGIN
 90
        1
 91
        1
300
_TITLE
309
CELLSTYLE_END
300
CELLSTYLE
  1
TABLEFORMAT_BEGIN
 90
        5
170
     1
 91
        0
 92
        0
 62
   257
 93
        1
300
CONTENTFORMAT
  1
CONTENTFORMAT_BEGIN
 90
        0
 91
        0
 92
      512
 93
        0
300

 40
0.0
140
1.0
 94
        5
 62
     0
340
11
144
0.18
309
CONTENTFORMAT_END
171
     0
 94
        0
309
TABLEFORMAT_END
  1
CELLSTYLE_BEGIN
 90
        2
 91
        1
300
_HEADER
309
CELLSTYLE_END
300
CELLSTYLE
  1
TABLEFORMAT_BEGIN
 90
        5
170
     1
 91
        0
 92
        0
 62
   257
 93
        1
300
CONTENTFORMAT
  1
CONTENTFORMAT_BEGIN
 90
        0
 91
        0
 92
      512
 93
        0
300

 40
0.0
140
1.0
 94
        2
 62
     0
340
11
144
0.18
309
CONTENTFORMAT_END
171
     0
 94
        0
309
TABLEFORMAT_END
  1
CELLSTYLE_BEGIN
 90
        3
 91
        2
300
_DATA
309
CELLSTYLE_END
  0
ENDSEC
  0
SECTION
  2
ACDSDATA
 70
     2
 71
     6
  0
ACDSSCHEMA
 90
        0
  1
AcDb_Thumbnail_Schema
  2
AcDbDs::ID
280
    10
 91
        8
  2
Thumbnail_Data
280
    15
 91
        0
101
ACDSRECORD
 95
        0
 90
        1
  2
AcDbDs::TreatedAsObjectData
280
     1
291
     1
101
ACDSRECORD
 95
        0
 90
        2
  2
AcDbDs::Legacy
280
     1
291
     1
101
ACDSRECORD
  1
AcDbDs::ID
 90
        3
  2
AcDs:Indexable
280
     1
291
     1
101
ACDSRECORD
  1
AcDbDs::ID
 90
        4
  2
AcDbDs::HandleAttribute
280
     7
282
     1
  0
ACDSSCHEMA
 90
        1
  1
AcDbDs::TreatedAsObjectDataSchema
  2
AcDbDs::TreatedAsObjectData
280
     1
 91
        0
  0
ACDSSCHEMA
 90
        2
  1
AcDbDs::LegacySchema
  2
AcDbDs::Legacy
280
     1
 91
        0
  0
ACDSSCHEMA
 90
        3
  1
AcDbDs::IndexedPropertySchema
  2
AcDs:Indexable
280
     1
 91
        0
  0
ACDSSCHEMA
 90
        4
  1
AcDbDs::HandleAttributeSchema
  2
AcDbDs::HandleAttribute
280
     7
 91
        1
284
     1
  0
ACDSRECORD
 90
        0
  2
AcDbDs::ID
280
    10
320
68A
  2
Thumbnail_Data
280
    15
 94
     1703
310
89504E470D0A1A0A0000000D49484452000000B40000010008030000002D3FACD700000300504C5445FFFFFF000000C8C8C80000000000000000000000000000000000000000000000000000330000660000990000CC0000FF0033000033330033660033990033CC0033FF0066000066330066660066990066CC0066FF0099
310
000099330099660099990099CC0099FF00CC0000CC3300CC6600CC9900CCCC00CCFF00FF0000FF3300FF6600FF9900FFCC00FFFF3300003300333300663300993300CC3300FF3333003333333333663333993333CC3333FF3366003366333366663366993366CC3366FF3399003399333399663399993399CC3399FF33CC00
310
33CC3333CC6633CC9933CCCC33CCFF33FF0033FF3333FF6633FF9933FFCC33FFFF6600006600336600666600996600CC6600FF6633006633336633666633996633CC6633FF6666006666336666666666996666CC6666FF6699006699336699666699996699CC6699FF66CC0066CC3366CC6666CC9966CCCC66CCFF66FF0066
310
FF3366FF6666FF9966FFCC66FFFF9900009900339900669900999900CC9900FF9933009933339933669933999933CC9933FF9966009966339966669966999966CC9966FF9999009999339999669999999999CC9999FF99CC0099CC3399CC6699CC9999CCCC99CCFF99FF0099FF3399FF6699FF9999FFCC99FFFFCC0000CC00
310
33CC0066CC0099CC00CCCC00FFCC3300CC3333CC3366CC3399CC33CCCC33FFCC6600CC6633CC6666CC6699CC66CCCC66FFCC9900CC9933CC9966CC9999CC99CCCC99FFCCCC00CCCC33CCCC66CCCC99CCCCCCCCCCFFCCFF00CCFF33CCFF66CCFF99CCFFCCCCFFFFFF0000FF0033FF0066FF0099FF00CCFF00FFFF3300FF3333
310
FF3366FF3399FF33CCFF33FFFF6600FF6633FF6666FF6699FF66CCFF66FFFF9900FF9933FF9966FF9999FF99CCFF99FFFFCC00FFCC33FFCC66FFCC99FFCCCCFFCCFFFFFF00FFFF33FFFF66FFFF99FFFFCCFFFFFF0000000D0D0D1A1A1A2828283535354343435050505D5D5D6B6B6B787878868686939393A1A1A1AEAEAEBB
310
BBBBC9C9C9D6D6D6E4E4E4F1F1F1FFFFFF000000000000000000000000000000000000000000000000000000000000B0E2D235000003624944415478DAEDDD5D6EE3300C4561EEA0FBDF1E1760640933C9C01DFFC7912989373E2A0AB47EC90756A6684956CD68341AED4273953643AB0477F18BFB51C041DF1C7DE27E047D
310
6FB45CCA3B8C3468D0A27DFA9B6A0FD0A0BF6F70C9126FD059D106FAEE686A0FD045530849FA35681EB7402B164C727D1A34C33868D0A04183060D1A3468D0A04183060D1A3468D0A04183060D1A34E8CA68B7E1B97CFEF8FBE3F83DFB657AE17719CCFDF1787847F4300C7A68534417473A52BD89DE5FAA2D8FF406BA7825
310
F823F4AB9D4007BCFB161AE9412ED297D06B752CBA46F688BC13DB658F40754B7498BA4DF7D80E7571FEA81AE95A49EF737441C1644A91CED2A741830E4557A898EAE769F7BD48374347760F49343762A5D29448378C748DC3536A45FA74C154096D8AE8EF4B7993B008658FBDBFAD44CAABFC0A4493C7AD31DE82834BC748
310
5BD11482EB0DE3E3D48756F77045F4E3F9F51DE8E2A7C556E8D0F9B13679FA95EF3A46DACAF2F4ABD2537B08E88A2E1D11B7BA47F2DAE399397AA63C1BF4D0E56BE38A53087AF534FB3D6E83B66A0BFAA747F5EA910E3F50B8459E76C9489FDF3AD10B7D34597301BDA04747FA6886C9B3A22F2D14E542BBE0F245C4FCB483
310
6ED5A75909009DE4712BB04EEA517B7C7E23823E44FFFBB010F49E3CB49EF6ACE883486F7E5E7EF4F48208DA7CEF462CA93D5A0D2E7B68EB8C364574649ECE3159B3B5752205DA04B74ED88911F1DDD609BF7AD6649561FC19DB9DAD13534F22B4F9DBAD13F922BD859ECE314DBB4923B495A06773D401CB18AD223DA24336
310
3335EBD3D3D50045F4E5AD6435664DDF477A139F0F3D5B1B6F8EB642F4EF2E0499ECB18D2E9E076992A767DDA3033A26E5DD055DBBCA7B9FA713A2D7A5E9FFAD139F94A681682BEC1E1F7D4E92F969B64E345B09F09E6853440F77426B1EE0E0827DBAE7A91376F3532772F76903CDDA38BB10D2E469224DF720D2449A4867
310
8D340513E8711E4FEDD489C57B011A37E262BFC7BB970272F5E9D57E8FDEA74E0C8AA74E98DEA9138A8F5B391A68D0A04183060D1A3468D0A041ABA1555A9A48FBF9CB65E80AFF58C6C64D7BABCBEBABA041CFD1CB5760EF82AE943D1AA0E3820CBA35BA6C7061188F89F4F52A2FF65CB3ED3E1DFE0A36E84468C93E7D7944
310
548B74A5B3101AD41EE1E89F659344FF84A2F5A6108AD18AB5078D46EBD9FE004330E71CFEC818660000000049454E44AE426082
  0
ACDSRECORD
 90
        0
  2
AcDbDs::ID
280
    10
320
22
  2
Thumbnail_Data
280
    15
 94
     1250
310
89504E470D0A1A0A0000000D49484452000001000000007A080300000067627D4700000300504C5445212830000000C8C8C80000000000000000000000000000000000000000000000000000330000660000990000CC0000FF0033000033330033660033990033CC0033FF0066000066330066660066990066CC0066FF0099
310
000099330099660099990099CC0099FF00CC0000CC3300CC6600CC9900CCCC00CCFF00FF0000FF3300FF6600FF9900FFCC00FFFF3300003300333300663300993300CC3300FF3333003333333333663333993333CC3333FF3366003366333366663366993366CC3366FF3399003399333399663399993399CC3399FF33CC00
310
33CC3333CC6633CC9933CCCC33CCFF33FF0033FF3333FF6633FF9933FFCC33FFFF6600006600336600666600996600CC6600FF6633006633336633666633996633CC6633FF6666006666336666666666996666CC6666FF6699006699336699666699996699CC6699FF66CC0066CC3366CC6666CC9966CCCC66CCFF66FF0066
310
FF3366FF6666FF9966FFCC66FFFF9900009900339900669900999900CC9900FF9933009933339933669933999933CC9933FF9966009966339966669966999966CC9966FF9999009999339999669999999999CC9999FF99CC0099CC3399CC6699CC9999CCCC99CCFF99FF0099FF3399FF6699FF9999FFCC99FFFFCC0000CC00
310
33CC0066CC0099CC00CCCC00FFCC3300CC3333CC3366CC3399CC33CCCC33FFCC6600CC6633CC6666CC6699CC66CCCC66FFCC9900CC9933CC9966CC9999CC99CCCC99FFCCCC00CCCC33CCCC66CCCC99CCCCCCCCCCFFCCFF00CCFF33CCFF66CCFF99CCFFCCCCFFFFFF0000FF0033FF0066FF0099FF00CCFF00FFFF3300FF3333
310
FF3366FF3399FF33CCFF33FFFF6600FF6633FF6666FF6699FF66CCFF66FFFF9900FF9933FF9966FF9999FF99CCFF99FFFFCC00FFCC33FFCC66FFCC99FFCCCCFFCCFFFFFF00FFFF33FFFF66FFFF99FFFFCCFFFFFF0000000D0D0D1A1A1A2828283535354343435050505D5D5D6B6B6B787878868686939393A1A1A1AEAEAEBB
310
BBBBC9C9C9D6D6D6E4E4E4F1F1F1FFFFFF000000000000000000000000000000000000000000000000000000000000B21171F60000019D4944415478DAED9B4B8E84300C0573FF6372805636DECF103E090D49436BA491DEAB62D5EA550A3B3631A404000000000000000000000000F0E7C4EB1539CD57CAFB9572C4FC5F0E
310
77019A06A2E1F7C759408C9013308E803D0494043C4901FD5DA02360520CFD67024AD8D710B04D01F91C40405F806C19FC2A02D8035CF780C9B40CC65606A738B78F5A7DF19B80655D55805D0A1C6EF0BC7EDB3D40BE07BEB90778578129DCCBA0EFD3E02E205F96414301AE29901160BF09266B01069391BE80B881B68043
310
04F808A8AB9B2E07236A0E1E1F89590988CF02927B04D808A00CAACE07DE049403C1A60CF6534053C0B6B6F82C40C5C19580F5D50953016D27382883B29B609D0B380B685AE15C7604AB32582622A71BEE52069752D8B4C2CBDA939780FA2C500C688F878602963341330165B5C76371E9B7E56E08D8D2C144C031054E02E4
310
FAC1611558E702FD57C624CF03D63E206D73814E1F207C20D244C0D2089B75820C4610C0F7021C8AF292140248010420000108A00C3A7F2F609D0216DFCCDE4A0177010E290000000000000000000000000000F05FFC0064F57FF39A16EFA20000000049454E44AE426082
  0
ENDSEC
  0
EOF
